  0
SECTION
  2
HEADER
  9
$ACADVER
  1
AC1015
  9
$ACADMAINTVER
 70
    20
  9
$DWGCODEPAGE
  3
ANSI_936
  9
$INSBASE
 10
0.0
 20
0.0
 30
0.0
  9
$EXTMIN
 10
1242.910253384704
 20
85.52812664426866
 30
0.0
  9
$EXTMAX
 10
1444.991186077685
 20
177.3222465729975
 30
0.0
  9
$LIMMIN
 10
0.0
 20
0.0
  9
$LIMMAX
 10
12.0
 20
9.0
  9
$ORTHOMODE
 70
     1
  9
$REGENMODE
 70
     1
  9
$FILLMODE
 70
     1
  9
$QTEXTMODE
 70
     0
  9
$MIRRTEXT
 70
     0
  9
$LTSCALE
 40
1.0
  9
$ATTMODE
 70
     1
  9
$TEXTSIZE
 40
0.2
  9
$TRACEWID
 40
0.05
  9
$TEXTSTYLE
  7
STANDARD
  9
$CLAYER
  8
标注
  9
$CELTYPE
  6
ByLayer
  9
$CECOLOR
 62
   256
  9
$CELTSCALE
 40
1.0
  9
$DISPSILH
 70
     0
  9
$DIMSCALE
 40
1.0
  9
$DIMASZ
 40
0.65
  9
$DIMEXO
 40
0.88
  9
$DIMDLI
 40
0.015
  9
$DIMRND
 40
0.0
  9
$DIMDLE
 40
0.0
  9
$DIMEXE
 40
0.32
  9
$DIMTP
 40
0.0
  9
$DIMTM
 40
0.0
  9
$DIMTXT
 40
0.65
  9
$DIMCEN
 40
0.09
  9
$DIMTSZ
 40
0.0
  9
$DIMTOL
 70
     0
  9
$DIMLIM
 70
     0
  9
$DIMTIH
 70
     0
  9
$DIMTOH
 70
     0
  9
$DIMSE1
 70
     0
  9
$DIMSE2
 70
     0
  9
$DIMTAD
 70
     0
  9
$DIMZIN
 70
     8
  9
$DIMBLK
  1

  9
$DIMASO
 70
     1
  9
$DIMSHO
 70
     1
  9
$DIMPOST
  1
"
  9
$DIMAPOST
  1
"
  9
$DIMALT
 70
     0
  9
$DIMALTD
 70
     1
  9
$DIMALTF
 40
0.03937
  9
$DIMLFAC
 40
1.0
  9
$DIMTOFL
 70
     1
  9
$DIMTVP
 40
0.0
  9
$DIMTIX
 70
     0
  9
$DIMSOXD
 70
     0
  9
$DIMSAH
 70
     0
  9
$DIMBLK1
  1

  9
$DIMBLK2
  1

  9
$DIMSTYLE
  2
副本STANDARD
  9
$DIMCLRD
 70
   256
  9
$DIMCLRE
 70
   256
  9
$DIMCLRT
 70
   256
  9
$DIMTFAC
 40
1.0
  9
$DIMGAP
 40
0.3
  9
$DIMJUST
 70
     0
  9
$DIMSD1
 70
     0
  9
$DIMSD2
 70
     0
  9
$DIMTOLJ
 70
     1
  9
$DIMTZIN
 70
     8
  9
$DIMALTZ
 70
     8
  9
$DIMALTTZ
 70
     8
  9
$DIMUPT
 70
     0
  9
$DIMDEC
 70
     3
  9
$DIMTDEC
 70
     3
  9
$DIMALTU
 70
     2
  9
$DIMALTTD
 70
     1
  9
$DIMTXSTY
  7
STANDARD
  9
$DIMAUNIT
 70
     0
  9
$DIMADEC
 70
     0
  9
$DIMALTRND
 40
0.0
  9
$DIMAZIN
 70
     0
  9
$DIMDSEP
 70
    46
  9
$DIMATFIT
 70
     3
  9
$DIMFRAC
 70
     2
  9
$DIMLDRBLK
  1

  9
$DIMLUNIT
 70
     5
  9
$DIMLWD
 70
    -2
  9
$DIMLWE
 70
    -2
  9
$DIMTMOVE
 70
     2
  9
$LUNITS
 70
     2
  9
$LUPREC
 70
     4
  9
$SKETCHINC
 40
0.1
  9
$FILLETRAD
 40
0.0
  9
$AUNITS
 70
     0
  9
$AUPREC
 70
     0
  9
$MENU
  1
.
  9
$ELEVATION
 40
0.0
  9
$PELEVATION
 40
0.0
  9
$THICKNESS
 40
0.0
  9
$LIMCHECK
 70
     0
  9
$CHAMFERA
 40
0.0
  9
$CHAMFERB
 40
0.0
  9
$CHAMFERC
 40
0.0
  9
$CHAMFERD
 40
0.0
  9
$SKPOLY
 70
     0
  9
$TDCREATE
 40
2455434.724808658
  9
$TDUCREATE
 40
2455434.391475324
  9
$TDUPDATE
 40
2458563.641172998
  9
$TDUUPDATE
 40
2458563.307839664
  9
$TDINDWG
 40
0.8223955440
  9
$TDUSRTIMER
 40
0.8223779398
  9
$USRTIMER
 70
     1
  9
$ANGBASE
 50
0.0
  9
$ANGDIR
 70
     0
  9
$PDMODE
 70
     0
  9
$PDSIZE
 40
0.0
  9
$PLINEWID
 40
0.0
  9
$SPLFRAME
 70
     0
  9
$SPLINETYPE
 70
     6
  9
$SPLINESEGS
 70
     8
  9
$HANDSEED
  5
96B5
  9
$SURFTAB1
 70
     6
  9
$SURFTAB2
 70
     6
  9
$SURFTYPE
 70
     6
  9
$SURFU
 70
     6
  9
$SURFV
 70
     6
  9
$UCSBASE
  2

  9
$UCSNAME
  2

  9
$UCSORG
 10
0.0
 20
0.0
 30
0.0
  9
$UCSXDIR
 10
1.0
 20
0.0
 30
0.0
  9
$UCSYDIR
 10
0.0
 20
1.0
 30
0.0
  9
$UCSORTHOREF
  2

  9
$UCSORTHOVIEW
 70
     0
  9
$UCSORGTOP
 10
0.0
 20
0.0
 30
0.0
  9
$UCSORGBOTTOM
 10
0.0
 20
0.0
 30
0.0
  9
$UCSORGLEFT
 10
0.0
 20
0.0
 30
0.0
  9
$UCSORGRIGHT
 10
0.0
 20
0.0
 30
0.0
  9
$UCSORGFRONT
 10
0.0
 20
0.0
 30
0.0
  9
$UCSORGBACK
 10
0.0
 20
0.0
 30
0.0
  9
$PUCSBASE
  2

  9
$PUCSNAME
  2

  9
$PUCSORG
 10
0.0
 20
0.0
 30
0.0
  9
$PUCSXDIR
 10
1.0
 20
0.0
 30
0.0
  9
$PUCSYDIR
 10
0.0
 20
1.0
 30
0.0
  9
$PUCSORTHOREF
  2

  9
$PUCSORTHOVIEW
 70
     0
  9
$PUCSORGTOP
 10
0.0
 20
0.0
 30
0.0
  9
$PUCSORGBOTTOM
 10
0.0
 20
0.0
 30
0.0
  9
$PUCSORGLEFT
 10
0.0
 20
0.0
 30
0.0
  9
$PUCSORGRIGHT
 10
0.0
 20
0.0
 30
0.0
  9
$PUCSORGFRONT
 10
0.0
 20
0.0
 30
0.0
  9
$PUCSORGBACK
 10
0.0
 20
0.0
 30
0.0
  9
$USERI1
 70
     0
  9
$USERI2
 70
     0
  9
$USERI3
 70
     0
  9
$USERI4
 70
     0
  9
$USERI5
 70
     0
  9
$USERR1
 40
0.0
  9
$USERR2
 40
0.0
  9
$USERR3
 40
0.0
  9
$USERR4
 40
0.0
  9
$USERR5
 40
2.5
  9
$WORLDVIEW
 70
     1
  9
$SHADEDGE
 70
     3
  9
$SHADEDIF
 70
    70
  9
$TILEMODE
 70
     1
  9
$MAXACTVP
 70
    64
  9
$PINSBASE
 10
0.0
 20
0.0
 30
0.0
  9
$PLIMCHECK
 70
     0
  9
$PEXTMIN
 10
1.000000000000000E+20
 20
1.000000000000000E+20
 30
1.000000000000000E+20
  9
$PEXTMAX
 10
-1.000000000000000E+20
 20
-1.000000000000000E+20
 30
-1.000000000000000E+20
  9
$PLIMMIN
 10
0.0
 20
0.0
  9
$PLIMMAX
 10
12.0
 20
9.0
  9
$UNITMODE
 70
     0
  9
$VISRETAIN
 70
     1
  9
$PLINEGEN
 70
     0
  9
$PSLTSCALE
 70
     1
  9
$TREEDEPTH
 70
  3020
  9
$CMLSTYLE
  2
Standard
  9
$CMLJUST
 70
     0
  9
$CMLSCALE
 40
1.0
  9
$PROXYGRAPHICS
 70
     1
  9
$MEASUREMENT
 70
     0
  9
$CELWEIGHT
370
    -1
  9
$ENDCAPS
280
     0
  9
$JOINSTYLE
280
     0
  9
$LWDISPLAY
290
     0
  9
$INSUNITS
 70
     0
  9
$HYPERLINKBASE
  1

  9
$STYLESHEET
  1

  9
$XEDIT
290
     1
  9
$CEPSNTYPE
380
     0
  9
$PSTYLEMODE
290
     1
  9
$FINGERPRINTGUID
  2
{7BAC09DB-C4D0-41DB-8C07-4C6808ADD930}
  9
$VERSIONGUID
  2
{1F31CD8E-4800-4779-9561-581079936E6B}
  9
$EXTNAMES
290
     1
  9
$PSVPSCALE
 40
0.0
  9
$OLESTARTUP
290
     0
  0
ENDSEC
  0
SECTION
  2
CLASSES
  0
CLASS
  1
ACDBDICTIONARYWDFLT
  2
AcDbDictionaryWithDefault
  3
ObjectDBX Classes
 90
        0
280
     0
281
     0
  0
CLASS
  1
MATERIAL
  2
AcDbMaterial
  3
ObjectDBX Classes
 90
     1153
280
     0
281
     0
  0
CLASS
  1
VISUALSTYLE
  2
AcDbVisualStyle
  3
ObjectDBX Classes
 90
     4095
280
     0
281
     0
  0
CLASS
  1
SCALE
  2
AcDbScale
  3
ObjectDBX Classes
 90
     1153
280
     0
281
     0
  0
CLASS
  1
TABLESTYLE
  2
AcDbTableStyle
  3
ObjectDBX Classes
 90
     4095
280
     0
281
     0
  0
CLASS
  1
MLEADERSTYLE
  2
AcDbMLeaderStyle
  3
ACDB_MLEADERSTYLE_CLASS
 90
     4095
280
     0
281
     0
  0
CLASS
  1
VLO-VL
  2
vlo_VL
  3
VL|AutoLISP based application
 90
      129
280
     0
281
     0
  0
CLASS
  1
DICTIONARYVAR
  2
AcDbDictionaryVar
  3
ObjectDBX Classes
 90
        0
280
     0
281
     0
  0
CLASS
  1
CELLSTYLEMAP
  2
AcDbCellStyleMap
  3
ObjectDBX Classes
 90
     1152
280
     0
281
     0
  0
CLASS
  1
DIMASSOC
  2
AcDbDimAssoc
  3
"AcDbDimAssoc|Product Desc:     AcDim ARX App For Dimension|Company:          Autodesk, Inc.|WEB Address:      www.autodesk.com"
 90
    32768
280
     0
281
     0
  0
CLASS
  1
SORTENTSTABLE
  2
AcDbSortentsTable
  3
ObjectDBX Classes
 90
        0
280
     0
281
     0
  0
CLASS
  1
ACDBPLACEHOLDER
  2
AcDbPlaceHolder
  3
ObjectDBX Classes
 90
        0
280
     0
281
     0
  0
CLASS
  1
LAYOUT
  2
AcDbLayout
  3
ObjectDBX Classes
 90
        0
280
     0
281
     0
  0
ENDSEC
  0
SECTION
  2
TABLES
  0
TABLE
  2
VPORT
  5
5F02
330
0
100
AcDbSymbolTable
 70
     1
  0
VPORT
  5
5F73
330
5F02
100
AcDbSymbolTableRecord
100
AcDbViewportTableRecord
  2
*ACTIVE
 70
     0
 10
0.0
 20
0.0
 11
1.0
 21
1.0
 12
1432.542903517371
 22
118.0371249225714
 13
0.0
 23
0.0
 14
0.5
 24
0.5
 15
0.5
 25
0.5
 16
0.0
 26
0.0
 36
1.0
 17
0.0
 27
0.0
 37
0.0
 40
161.0049312776997
 41
1.522756827048114
 42
50.0
 43
0.0
 44
0.0
 50
0.0
 51
0.0
 71
     0
 72
  1000
 73
     1
 74
     3
 75
     0
 76
     0
 77
     0
 78
     0
281
     0
 65
     1
110
0.0
120
0.0
130
0.0
111
1.0
121
0.0
131
0.0
112
0.0
122
1.0
132
0.0
 79
     0
146
0.0
  0
ENDTAB
  0
TABLE
  2
LTYPE
  5
5EFF
330
0
100
AcDbSymbolTable
 70
     5
  0
LTYPE
  5
5F5C
330
5EFF
100
AcDbSymbolTableRecord
100
AcDbLinetypeTableRecord
  2
ByBlock
 70
     0
  3

 72
    65
 73
     0
 40
0.0
  0
LTYPE
  5
5F5D
330
5EFF
100
AcDbSymbolTableRecord
100
AcDbLinetypeTableRecord
  2
ByLayer
 70
     0
  3

 72
    65
 73
     0
 40
0.0
  0
LTYPE
  5
5F5E
330
5EFF
100
AcDbSymbolTableRecord
100
AcDbLinetypeTableRecord
  2
CONTINUOUS
 70
     0
  3
Solid line
 72
    65
 73
     0
 40
0.0
  0
LTYPE
  5
5F74
330
5EFF
100
AcDbSymbolTableRecord
100
AcDbLinetypeTableRecord
  2
CENTER2
 70
     0
  3
Center (.5x) ___ _ ___ _ ___ _ ___ _ ___ _ ___
 72
    65
 73
     4
 40
28.575
 49
19.05
 74
     0
 49
-3.174999999999998
 74
     0
 49
3.174999999999998
 74
     0
 49
-3.174999999999998
 74
     0
  0
LTYPE
  5
5F75
330
5EFF
100
AcDbSymbolTableRecord
100
AcDbLinetypeTableRecord
  2
HIDDEN2
 70
     0
  3
Hidden (.5x) _ _ _ _ _ _ _ _ _ _ _ _ _ _ _ _ _
 72
    65
 73
     2
 40
4.762499999999998
 49
3.174999999999998
 74
     0
 49
-1.587499999999999
 74
     0
  0
ENDTAB
  0
TABLE
  2
LAYER
  5
5EFC
102
{ACAD_XDICTIONARY
360
61B7
102
}
330
0
100
AcDbSymbolTable
 70
     9
  0
LAYER
  5
5F56
102
{ACAD_XDICTIONARY
360
60F4
102
}
330
5EFC
100
AcDbSymbolTableRecord
100
AcDbLayerTableRecord
  2
0
 70
     0
 62
     7
  6
CONTINUOUS
370
    -3
390
5F09
  0
LAYER
  5
5F72
102
{ACAD_XDICTIONARY
360
60F6
102
}
330
5EFC
100
AcDbSymbolTableRecord
100
AcDbLayerTableRecord
  2
标注
 70
     0
 62
    80
  6
CONTINUOUS
370
    -3
390
5F09
  0
LAYER
  5
5F7D
102
{ACAD_XDICTIONARY
360
60F8
102
}
330
5EFC
100
AcDbSymbolTableRecord
100
AcDbLayerTableRecord
  2
中心线
 70
     0
 62
     1
  6
CENTER2
370
    -3
390
5F09
  0
LAYER
  5
5F7E
102
{ACAD_XDICTIONARY
360
60FA
102
}
330
5EFC
100
AcDbSymbolTableRecord
100
AcDbLayerTableRecord
  2
虚线
 70
     0
 62
     4
  6
HIDDEN2
370
    -3
390
5F09
  0
LAYER
  5
5F7F
330
5EFC
100
AcDbSymbolTableRecord
100
AcDbLayerTableRecord
  2
DEFPOINTS
 70
     0
 62
     7
  6
CONTINUOUS
290
     0
370
    -3
390
5F09
  0
LAYER
  5
5F80
102
{ACAD_XDICTIONARY
360
60FC
102
}
330
5EFC
100
AcDbSymbolTableRecord
100
AcDbLayerTableRecord
  2
细实线
 70
     0
 62
     7
  6
CONTINUOUS
370
    -3
390
5F09
  0
ENDTAB
  0
TABLE
  2
STYLE
  5
5EFD
330
0
100
AcDbSymbolTable
 70
     2
  0
STYLE
  5
5F57
330
5EFD
100
AcDbSymbolTableRecord
100
AcDbTextStyleTableRecord
  2
STANDARD
 70
     0
 40
0.0
 41
1.0
 50
0.0
 71
     0
 42
0.2
  3
arial.ttf
  4

1001
ACAD
1000
Arial
1071
       34
  0
ENDTAB
  0
TABLE
  2
VIEW
  5
5F00
330
0
100
AcDbSymbolTable
 70
     0
  0
ENDTAB
  0
TABLE
  2
UCS
  5
5F01
330
0
100
AcDbSymbolTable
 70
     0
  0
ENDTAB
  0
TABLE
  2
APPID
  5
5F03
330
0
100
AcDbSymbolTable
 70
    28
  0
APPID
  5
5F58
330
5F03
100
AcDbSymbolTableRecord
100
AcDbRegAppTableRecord
  2
ACAD
 70
     0
  0
APPID
  5
5F5F
330
5F03
100
AcDbSymbolTableRecord
100
AcDbRegAppTableRecord
  2
ACADANNOTATIVE
 70
     0
  0
APPID
  5
5F69
330
5F03
100
AcDbSymbolTableRecord
100
AcDbRegAppTableRecord
  2
ACAD_MLEADERVER
 70
     0
  0
APPID
  5
5F84
330
5F03
100
AcDbSymbolTableRecord
100
AcDbRegAppTableRecord
  2
ACAECLAYERSTANDARD
 70
     0
  0
APPID
  5
5F85
330
5F03
100
AcDbSymbolTableRecord
100
AcDbRegAppTableRecord
  2
ACAD_DSTYLE_DIMEXT_LENGTH
 70
     0
  0
APPID
  5
5F86
330
5F03
100
AcDbSymbolTableRecord
100
AcDbRegAppTableRecord
  2
ACAD_DSTYLE_DIMEXT_ENABLED
 70
     0
  0
APPID
  5
5F87
330
5F03
100
AcDbSymbolTableRecord
100
AcDbRegAppTableRecord
  2
ACAD_DSTYLE_DIMJOGGED_JOGA
 70
     0
  0
APPID
  5
5F88
330
5F03
100
AcDbSymbolTableRecord
100
AcDbRegAppTableRecord
  2
ACAD_DSTYLE_DIMARC_LENGTH_
 70
     0
  0
APPID
  5
5F89
330
5F03
100
AcDbSymbolTableRecord
100
AcDbRegAppTableRecord
  2
ACAD_PSEXT
 70
     0
  0
APPID
  5
5F8A
330
5F03
100
AcDbSymbolTableRecord
100
AcDbRegAppTableRecord
  2
MCAD_NO_VIS
 70
     0
  0
APPID
  5
5F8B
330
5F03
100
AcDbSymbolTableRecord
100
AcDbRegAppTableRecord
  2
ACAD_TEMP_GRAPHIC
 70
     0
  0
APPID
  5
5F8C
330
5F03
100
AcDbSymbolTableRecord
100
AcDbRegAppTableRecord
  2
AD_DRAW
 70
     0
  0
APPID
  5
5F8D
330
5F03
100
AcDbSymbolTableRecord
100
AcDbRegAppTableRecord
  2
ACATTRIBSERVICES
 70
     0
  0
APPID
  5
5F8E
330
5F03
100
AcDbSymbolTableRecord
100
AcDbRegAppTableRecord
  2
DESIGNERASSEMBLIES
 70
     0
  0
APPID
  5
5F8F
330
5F03
100
AcDbSymbolTableRecord
100
AcDbRegAppTableRecord
  2
ACADM_DIM_EDIT
 70
     0
  0
APPID
  5
5F90
330
5F03
100
AcDbSymbolTableRecord
100
AcDbRegAppTableRecord
  2
AMDT_DM_ADJ
 70
     0
  0
APPID
  5
5F91
330
5F03
100
AcDbSymbolTableRecord
100
AcDbRegAppTableRecord
  2
ACAD_DSTYLE_DIMJAG
 70
     0
  0
APPID
  5
5F92
330
5F03
100
AcDbSymbolTableRecord
100
AcDbRegAppTableRecord
  2
ACAD_DSTYLE_DIMBREAK
 70
     0
  0
APPID
  5
5F93
330
5F03
100
AcDbSymbolTableRecord
100
AcDbRegAppTableRecord
  2
ACAD_DSTYLE_DIMTALN
 70
     0
  0
APPID
  5
5F94
330
5F03
100
AcDbSymbolTableRecord
100
AcDbRegAppTableRecord
  2
GENIUS_GENODEF_13
 70
     0
  0
APPID
  5
5F95
330
5F03
100
AcDbSymbolTableRecord
100
AcDbRegAppTableRecord
  2
GENIUS_GENOBJ-N-FIL_13
 70
     0
  0
APPID
  5
5F96
330
5F03
100
AcDbSymbolTableRecord
100
AcDbRegAppTableRecord
  2
ACAD_EXEMPT_FROM_CAD_STANDARDS
 70
     0
  0
APPID
  5
5F97
330
5F03
100
AcDbSymbolTableRecord
100
AcDbRegAppTableRecord
  2
ACAD_DSTYLE_DIM_LINETYPE
 70
     0
  0
APPID
  5
5F98
330
5F03
100
AcDbSymbolTableRecord
100
AcDbRegAppTableRecord
  2
ACAD_DSTYLE_DIM_EXT1_LINETYPE
 70
     0
  0
APPID
  5
5F99
330
5F03
100
AcDbSymbolTableRecord
100
AcDbRegAppTableRecord
  2
ACAD_DSTYLE_DIM_EXT2_LINETYPE
 70
     0
  0
APPID
  5
5F9A
330
5F03
100
AcDbSymbolTableRecord
100
AcDbRegAppTableRecord
  2
ACAD_DSTYLE_DIMRADIAL_EXTENSION
 70
     0
  0
APPID
  5
6488
330
5F03
100
AcDbSymbolTableRecord
100
AcDbRegAppTableRecord
  2
AcadAnnoPO
 70
     0
  0
APPID
  5
7772
330
5F03
100
AcDbSymbolTableRecord
100
AcDbRegAppTableRecord
  2
ACAD_DSTYLE_DIMJOGGED_JOGANGLE_SYMBOL
 70
     0
  0
ENDTAB
  0
TABLE
  2
DIMSTYLE
  5
5F04
330
0
100
AcDbSymbolTable
 70
    18
100
AcDbDimStyleTable
 71
     2
340
5F9B
340
5F59
  0
DIMSTYLE
105
5F59
102
{ACAD_REACTORS
330
94D5
330
9549
330
9557
102
}
330
5F04
100
AcDbSymbolTableRecord
100
AcDbDimStyleTableRecord
  2
STANDARD
 70
     0
 41
0.65
 73
     0
 74
     0
140
0.65
176
     3
177
     3
178
     3
271
     3
272
     3
276
     2
277
     5
279
     2
284
     8
285
     8
286
     8
340
5F57
371
    13
372
    13
1001
ACAD_DSTYLE_DIMJAG
1070
   388
1040
1.5
1001
ACAD_DSTYLE_DIMTALN
1070
   392
1070
     0
1001
ACAD_DSTYLE_DIM_LINETYPE
1070
   380
1005
5F5E
1001
ACAD_DSTYLE_DIM_EXT1_LINETYPE
1070
   381
1005
5F5E
1001
ACAD_DSTYLE_DIM_EXT2_LINETYPE
1070
   382
1005
5F5E
  0
DIMSTYLE
105
5F9B
102
{ACAD_REACTORS
330
949B
330
94A9
330
94B7
330
94C5
330
9501
330
9511
330
951F
330
952D
330
953B
330
9579
330
95C1
330
95CB
102
}
330
5F04
100
AcDbSymbolTableRecord
100
AcDbDimStyleTableRecord
  2
副本STANDARD
 70
     0
  3
"
  4
"
 41
0.65
 42
0.88
 43
0.015
 44
0.32
 73
     0
 74
     0
 78
     8
140
0.65
143
0.03937
147
0.3
171
     1
172
     1
176
   256
177
   256
178
   256
271
     3
272
     3
274
     1
276
     2
277
     5
279
     2
284
     8
285
     8
286
     8
340
5F57
1001
ACAD_DSTYLE_DIMJAG
1070
   388
1040
1.5
1001
ACAD_DSTYLE_DIMTALN
1070
   392
1070
     0
  0
ENDTAB
  0
TABLE
  2
BLOCK_RECORD
  5
5EFB
330
0
100
AcDbSymbolTable
 70
   229
  0
BLOCK_RECORD
  5
5F6E
102
{ACAD_XDICTIONARY
360
654F
102
}
330
5EFB
100
AcDbSymbolTableRecord
100
AcDbBlockTableRecord
  2
*Model_Space
340
5F71
  0
BLOCK_RECORD
  5
5F6A
330
5EFB
100
AcDbSymbolTableRecord
100
AcDbBlockTableRecord
  2
*Paper_Space
340
5F6D
  0
BLOCK_RECORD
  5
91CE
330
5EFB
100
AcDbSymbolTableRecord
100
AcDbBlockTableRecord
  2
*D196
340
0
  0
BLOCK_RECORD
  5
91E8
330
5EFB
100
AcDbSymbolTableRecord
100
AcDbBlockTableRecord
  2
*D198
340
0
  0
BLOCK_RECORD
  5
91F5
330
5EFB
100
AcDbSymbolTableRecord
100
AcDbBlockTableRecord
  2
*D199
340
0
  0
BLOCK_RECORD
  5
9202
330
5EFB
100
AcDbSymbolTableRecord
100
AcDbBlockTableRecord
  2
*D200
340
0
  0
BLOCK_RECORD
  5
9229
330
5EFB
100
AcDbSymbolTableRecord
100
AcDbBlockTableRecord
  2
*D203
340
0
  0
BLOCK_RECORD
  5
9236
330
5EFB
100
AcDbSymbolTableRecord
100
AcDbBlockTableRecord
  2
*D204
340
0
  0
BLOCK_RECORD
  5
9243
330
5EFB
100
AcDbSymbolTableRecord
100
AcDbBlockTableRecord
  2
*D205
340
0
  0
BLOCK_RECORD
  5
92B6
330
5EFB
100
AcDbSymbolTableRecord
100
AcDbBlockTableRecord
  2
*D206
340
0
  0
BLOCK_RECORD
  5
92C3
330
5EFB
100
AcDbSymbolTableRecord
100
AcDbBlockTableRecord
  2
*D207
340
0
  0
BLOCK_RECORD
  5
92E5
330
5EFB
100
AcDbSymbolTableRecord
100
AcDbBlockTableRecord
  2
*D208
340
0
  0
BLOCK_RECORD
  5
930E
330
5EFB
100
AcDbSymbolTableRecord
100
AcDbBlockTableRecord
  2
*D209
340
0
  0
BLOCK_RECORD
  5
9338
330
5EFB
100
AcDbSymbolTableRecord
100
AcDbBlockTableRecord
  2
*D210
340
0
  0
BLOCK_RECORD
  5
9342
330
5EFB
100
AcDbSymbolTableRecord
100
AcDbBlockTableRecord
  2
*D211
340
0
  0
BLOCK_RECORD
  5
949C
330
5EFB
100
AcDbSymbolTableRecord
100
AcDbBlockTableRecord
  2
*D214
340
0
  0
BLOCK_RECORD
  5
94AA
330
5EFB
100
AcDbSymbolTableRecord
100
AcDbBlockTableRecord
  2
*D215
340
0
  0
BLOCK_RECORD
  5
94B8
330
5EFB
100
AcDbSymbolTableRecord
100
AcDbBlockTableRecord
  2
*D216
340
0
  0
BLOCK_RECORD
  5
94C6
330
5EFB
100
AcDbSymbolTableRecord
100
AcDbBlockTableRecord
  2
*D217
340
0
  0
BLOCK_RECORD
  5
94D6
330
5EFB
100
AcDbSymbolTableRecord
100
AcDbBlockTableRecord
  2
*D218
340
0
  0
BLOCK_RECORD
  5
9502
330
5EFB
100
AcDbSymbolTableRecord
100
AcDbBlockTableRecord
  2
*D219
340
0
  0
BLOCK_RECORD
  5
9512
330
5EFB
100
AcDbSymbolTableRecord
100
AcDbBlockTableRecord
  2
*D220
340
0
  0
BLOCK_RECORD
  5
9520
330
5EFB
100
AcDbSymbolTableRecord
100
AcDbBlockTableRecord
  2
*D221
340
0
  0
BLOCK_RECORD
  5
952E
330
5EFB
100
AcDbSymbolTableRecord
100
AcDbBlockTableRecord
  2
*D222
340
0
  0
BLOCK_RECORD
  5
953C
330
5EFB
100
AcDbSymbolTableRecord
100
AcDbBlockTableRecord
  2
*D223
340
0
  0
BLOCK_RECORD
  5
954A
330
5EFB
100
AcDbSymbolTableRecord
100
AcDbBlockTableRecord
  2
*D224
340
0
  0
BLOCK_RECORD
  5
9558
330
5EFB
100
AcDbSymbolTableRecord
100
AcDbBlockTableRecord
  2
*D225
340
0
  0
BLOCK_RECORD
  5
957A
330
5EFB
100
AcDbSymbolTableRecord
100
AcDbBlockTableRecord
  2
*D226
340
0
  0
BLOCK_RECORD
  5
95C2
330
5EFB
100
AcDbSymbolTableRecord
100
AcDbBlockTableRecord
  2
*D227
340
0
  0
BLOCK_RECORD
  5
95CC
330
5EFB
100
AcDbSymbolTableRecord
100
AcDbBlockTableRecord
  2
*D228
340
0
  0
ENDTAB
  0
ENDSEC
  0
SECTION
  2
BLOCKS
  0
BLOCK
  5
5F6F
330
5F6E
100
AcDbEntity
  8
0
100
AcDbBlockBegin
  2
*Model_Space
 70
     0
 10
0.0
 20
0.0
 30
0.0
  3
*Model_Space
  1

  0
ENDBLK
  5
5F70
330
5F6E
100
AcDbEntity
  8
0
100
AcDbBlockEnd
  0
BLOCK
  5
5F6B
330
5F6A
100
AcDbEntity
 67
     1
  8
0
100
AcDbBlockBegin
  2
*Paper_Space
 70
     0
 10
0.0
 20
0.0
 30
0.0
  3
*Paper_Space
  1

  0
ENDBLK
  5
5F6C
330
5F6A
100
AcDbEntity
 67
     1
  8
0
100
AcDbBlockEnd
  0
BLOCK
  5
91CF
330
91CE
100
AcDbEntity
  8
0
100
AcDbBlockBegin
  2
*D196
 70
     1
 10
0.0
 20
0.0
 30
0.0
  3
*D196
  1

  0
LINE
  5
9250
330
91CE
100
AcDbEntity
  8
标注
  6
Continuous
370
    -2
100
AcDbLine
 10
1390.128762213056
 20
95.15660235874713
 30
0.0
 11
1390.128762213056
 21
93.20084298195814
 31
0.0
  0
LINE
  5
9251
330
91CE
100
AcDbEntity
  8
标注
  6
Continuous
370
    -2
100
AcDbLine
 10
1359.971342213052
 20
95.15660235874713
 30
0.0
 11
1359.971342213052
 21
93.20084298195814
 31
0.0
  0
LINE
  5
9252
330
91CE
100
AcDbEntity
  8
标注
  6
Continuous
370
    -2
100
AcDbLine
 10
1389.478762213055
 20
93.52084298195814
 30
0.0
 11
1376.733186592317
 21
93.52084298195814
 31
0.0
  0
LINE
  5
9253
330
91CE
100
AcDbEntity
  8
标注
  6
Continuous
370
    -2
100
AcDbLine
 10
1360.621342213052
 20
93.52084298195814
 30
0.0
 11
1373.366917833791
 21
93.52084298195814
 31
0.0
  0
SOLID
  5
9254
330
91CE
100
AcDbEntity
  8
标注
100
AcDbTrace
 10
1389.478762213055
 20
93.62917631529148
 30
0.0
 11
1389.478762213055
 21
93.4125096486248
 31
0.0
 12
1390.128762213056
 22
93.52084298195814
 32
0.0
 13
1390.128762213056
 23
93.52084298195814
 33
0.0
  0
SOLID
  5
9255
330
91CE
100
AcDbEntity
  8
标注
100
AcDbTrace
 10
1360.621342213052
 20
93.62917631529148
 30
0.0
 11
1360.621342213052
 21
93.4125096486248
 31
0.0
 12
1359.971342213052
 22
93.52084298195814
 32
0.0
 13
1359.971342213052
 23
93.52084298195814
 33
0.0
  0
MTEXT
  5
9256
330
91CE
100
AcDbEntity
  8
标注
100
AcDbMText
 10
1375.050052213054
 20
93.52084298195814
 30
0.0
 40
0.65
 41
0.0
 71
     5
 72
     1
  1
\A1;30 1/8"
 73
     1
 44
1.0
1001
ACAD
1000
MTEXTBEGIN
1070
    73
1070
     1
1070
    44
1040
1.0
1070
    74
1070
     0
1000
MTEXTEND
  0
POINT
  5
9257
330
91CE
100
AcDbEntity
  8
DEFPOINTS
 62
     0
100
AcDbPoint
 10
1390.128762213056
 20
96.03660235874713
 30
0.0
  0
POINT
  5
9258
330
91CE
100
AcDbEntity
  8
DEFPOINTS
 62
     0
100
AcDbPoint
 10
1359.971342213052
 20
96.03660235874713
 30
0.0
  0
POINT
  5
9259
330
91CE
100
AcDbEntity
  8
DEFPOINTS
 62
     0
100
AcDbPoint
 10
1359.971342213052
 20
93.52084298195814
 30
0.0
  0
ENDBLK
  5
91D0
330
91CE
100
AcDbEntity
  8
0
100
AcDbBlockEnd
  0
BLOCK
  5
91E9
330
91E8
100
AcDbEntity
  8
0
100
AcDbBlockBegin
  2
*D198
 70
     1
 10
0.0
 20
0.0
 30
0.0
  3
*D198
  1

  0
LINE
  5
9264
330
91E8
100
AcDbEntity
  8
标注
  6
Continuous
370
    -2
100
AcDbLine
 10
1389.82540862103
 20
130.9742860084266
 30
0.0
 11
1389.82540862103
 21
126.680172719562
 31
0.0
  0
LINE
  5
9265
330
91E8
100
AcDbEntity
  8
标注
  6
Continuous
370
    -2
100
AcDbLine
 10
1369.825448621014
 20
130.9742860084266
 30
0.0
 11
1369.825448621014
 21
126.680172719562
 31
0.0
  0
LINE
  5
9266
330
91E8
100
AcDbEntity
  8
标注
  6
Continuous
370
    -2
100
AcDbLine
 10
1389.17540862103
 20
127.000172719562
 30
0.0
 11
1380.757028211745
 21
127.000172719562
 31
0.0
  0
LINE
  5
9267
330
91E8
100
AcDbEntity
  8
标注
  6
Continuous
370
    -2
100
AcDbLine
 10
1370.475448621014
 20
127.000172719562
 30
0.0
 11
1378.893829030299
 21
127.000172719562
 31
0.0
  0
SOLID
  5
9268
330
91E8
100
AcDbEntity
  8
标注
100
AcDbTrace
 10
1389.17540862103
 20
127.1085060528953
 30
0.0
 11
1389.17540862103
 21
126.8918393862286
 31
0.0
 12
1389.82540862103
 22
127.000172719562
 32
0.0
 13
1389.82540862103
 23
127.000172719562
 33
0.0
  0
SOLID
  5
9269
330
91E8
100
AcDbEntity
  8
标注
100
AcDbTrace
 10
1370.475448621014
 20
127.1085060528953
 30
0.0
 11
1370.475448621014
 21
126.8918393862286
 31
0.0
 12
1369.825448621014
 22
127.000172719562
 32
0.0
 13
1369.825448621014
 23
127.000172719562
 33
0.0
  0
MTEXT
  5
926A
330
91E8
100
AcDbEntity
  8
标注
100
AcDbMText
 10
1379.825428621022
 20
127.000172719562
 30
0.0
 40
0.65
 41
0.0
 71
     5
 72
     1
  1
\A1;20"
 73
     1
 44
1.0
1001
ACAD
1000
MTEXTBEGIN
1070
    73
1070
     1
1070
    44
1040
1.0
1070
    74
1070
     0
1000
MTEXTEND
  0
POINT
  5
926B
330
91E8
100
AcDbEntity
  8
DEFPOINTS
 62
     0
100
AcDbPoint
 10
1389.82540862103
 20
131.8542860084266
 30
0.0
  0
POINT
  5
926C
330
91E8
100
AcDbEntity
  8
DEFPOINTS
 62
     0
100
AcDbPoint
 10
1369.825448621014
 20
131.8542860084266
 30
0.0
  0
POINT
  5
926D
330
91E8
100
AcDbEntity
  8
DEFPOINTS
 62
     0
100
AcDbPoint
 10
1369.825448621014
 20
127.000172719562
 30
0.0
  0
ENDBLK
  5
91EA
330
91E8
100
AcDbEntity
  8
0
100
AcDbBlockEnd
  0
BLOCK
  5
91F6
330
91F5
100
AcDbEntity
  8
0
100
AcDbBlockBegin
  2
*D199
 70
     1
 10
0.0
 20
0.0
 30
0.0
  3
*D199
  1

  0
LINE
  5
926E
330
91F5
100
AcDbEntity
  8
标注
  6
Continuous
370
    -2
100
AcDbLine
 10
1368.825450621014
 20
130.9742860084266
 30
0.0
 11
1368.825450621014
 21
126.680172719562
 31
0.0
  0
LINE
  5
926F
330
91F5
100
AcDbEntity
  8
标注
  6
Continuous
370
    -2
100
AcDbLine
 10
1359.825468621021
 20
130.9742860084266
 30
0.0
 11
1359.825468621021
 21
126.680172719562
 31
0.0
  0
LINE
  5
9270
330
91F5
100
AcDbEntity
  8
标注
  6
Continuous
370
    -2
100
AcDbLine
 10
1368.175450621014
 20
127.000172719562
 30
0.0
 11
1364.999010098508
 21
127.000172719562
 31
0.0
  0
LINE
  5
9271
330
91F5
100
AcDbEntity
  8
标注
  6
Continuous
370
    -2
100
AcDbLine
 10
1360.475468621021
 20
127.000172719562
 30
0.0
 11
1363.651909143528
 21
127.000172719562
 31
0.0
  0
SOLID
  5
9272
330
91F5
100
AcDbEntity
  8
标注
100
AcDbTrace
 10
1368.175450621014
 20
127.1085060528953
 30
0.0
 11
1368.175450621014
 21
126.8918393862286
 31
0.0
 12
1368.825450621014
 22
127.000172719562
 32
0.0
 13
1368.825450621014
 23
127.000172719562
 33
0.0
  0
SOLID
  5
9273
330
91F5
100
AcDbEntity
  8
标注
100
AcDbTrace
 10
1360.475468621021
 20
127.1085060528953
 30
0.0
 11
1360.475468621021
 21
126.8918393862286
 31
0.0
 12
1359.825468621021
 22
127.000172719562
 32
0.0
 13
1359.825468621021
 23
127.000172719562
 33
0.0
  0
MTEXT
  5
9274
330
91F5
100
AcDbEntity
  8
标注
100
AcDbMText
 10
1364.325459621018
 20
127.000172719562
 30
0.0
 40
0.65
 41
0.0
 71
     5
 72
     1
  1
\A1;9"
 73
     1
 44
1.0
1001
ACAD
1000
MTEXTBEGIN
1070
    73
1070
     1
1070
    44
1040
1.0
1070
    74
1070
     0
1000
MTEXTEND
  0
POINT
  5
9275
330
91F5
100
AcDbEntity
  8
DEFPOINTS
 62
     0
100
AcDbPoint
 10
1368.825450621014
 20
131.8542860084266
 30
0.0
  0
POINT
  5
9276
330
91F5
100
AcDbEntity
  8
DEFPOINTS
 62
     0
100
AcDbPoint
 10
1359.825468621021
 20
131.8542860084266
 30
0.0
  0
POINT
  5
9277
330
91F5
100
AcDbEntity
  8
DEFPOINTS
 62
     0
100
AcDbPoint
 10
1359.825468621021
 20
127.000172719562
 30
0.0
  0
ENDBLK
  5
91F7
330
91F5
100
AcDbEntity
  8
0
100
AcDbBlockEnd
  0
BLOCK
  5
9203
330
9202
100
AcDbEntity
  8
0
100
AcDbBlockBegin
  2
*D200
 70
     1
 10
0.0
 20
0.0
 30
0.0
  3
*D200
  1

  0
LINE
  5
9278
330
9202
100
AcDbEntity
  8
标注
  6
Continuous
370
    -2
100
AcDbLine
 10
1391.262413621015
 20
128.0805910084205
 30
0.0
 11
1391.262413621015
 21
124.9222846402065
 31
0.0
  0
LINE
  5
9279
330
9202
100
AcDbEntity
  8
标注
  6
Continuous
370
    -2
100
AcDbLine
 10
1358.388463621007
 20
128.0805910084205
 30
0.0
 11
1358.388463621007
 21
124.9222846402065
 31
0.0
  0
LINE
  5
927A
330
9202
100
AcDbEntity
  8
标注
  6
Continuous
370
    -2
100
AcDbLine
 10
1390.612413621015
 20
125.2422846402065
 30
0.0
 11
1376.508573000274
 21
125.2422846402065
 31
0.0
  0
LINE
  5
927B
330
9202
100
AcDbEntity
  8
标注
  6
Continuous
370
    -2
100
AcDbLine
 10
1359.038463621007
 20
125.2422846402065
 30
0.0
 11
1373.142304241748
 21
125.2422846402065
 31
0.0
  0
SOLID
  5
927C
330
9202
100
AcDbEntity
  8
标注
100
AcDbTrace
 10
1390.612413621015
 20
125.3506179735399
 30
0.0
 11
1390.612413621015
 21
125.1339513068732
 31
0.0
 12
1391.262413621015
 22
125.2422846402065
 32
0.0
 13
1391.262413621015
 23
125.2422846402065
 33
0.0
  0
SOLID
  5
927D
330
9202
100
AcDbEntity
  8
标注
100
AcDbTrace
 10
1359.038463621007
 20
125.3506179735399
 30
0.0
 11
1359.038463621007
 21
125.1339513068732
 31
0.0
 12
1358.388463621007
 22
125.2422846402065
 32
0.0
 13
1358.388463621007
 23
125.2422846402065
 33
0.0
  0
MTEXT
  5
927E
330
9202
100
AcDbEntity
  8
标注
100
AcDbMText
 10
1374.825438621011
 20
125.2422846402065
 30
0.0
 40
0.65
 41
0.0
 71
     5
 72
     1
  1
\A1;32 7/8"
 73
     1
 44
1.0
1001
ACAD
1000
MTEXTBEGIN
1070
    73
1070
     1
1070
    44
1040
1.0
1070
    74
1070
     0
1000
MTEXTEND
  0
POINT
  5
927F
330
9202
100
AcDbEntity
  8
DEFPOINTS
 62
     0
100
AcDbPoint
 10
1391.262413621015
 20
128.9605910084205
 30
0.0
  0
POINT
  5
9280
330
9202
100
AcDbEntity
  8
DEFPOINTS
 62
     0
100
AcDbPoint
 10
1358.388463621007
 20
128.9605910084205
 30
0.0
  0
POINT
  5
9281
330
9202
100
AcDbEntity
  8
DEFPOINTS
 62
     0
100
AcDbPoint
 10
1358.388463621007
 20
125.2422846402065
 30
0.0
  0
ENDBLK
  5
9204
330
9202
100
AcDbEntity
  8
0
100
AcDbBlockEnd
  0
BLOCK
  5
922A
330
9229
100
AcDbEntity
  8
0
100
AcDbBlockBegin
  2
*D203
 70
     1
 10
0.0
 20
0.0
 30
0.0
  3
*D203
  1

  0
LINE
  5
9296
330
9229
100
AcDbEntity
  8
标注
  6
Continuous
370
    -2
100
AcDbLine
 10
1357.508463621007
 20
173.09951044932
 30
0.0
 11
1356.078511408677
 21
173.09951044932
 31
0.0
  0
LINE
  5
9297
330
9229
100
AcDbEntity
  8
标注
  6
Continuous
370
    -2
100
AcDbLine
 10
1357.508463621007
 20
165.09951044932
 30
0.0
 11
1356.078511408677
 21
165.09951044932
 31
0.0
  0
LINE
  5
9298
330
9229
100
AcDbEntity
  8
标注
  6
Continuous
370
    -2
100
AcDbLine
 10
1356.398511408677
 20
172.44951044932
 30
0.0
 11
1356.398511408677
 21
169.7735043101658
 31
0.0
  0
LINE
  5
9299
330
9229
100
AcDbEntity
  8
标注
  6
Continuous
370
    -2
100
AcDbLine
 10
1356.398511408677
 20
165.74951044932
 30
0.0
 11
1356.398511408677
 21
168.4255165884741
 31
0.0
  0
SOLID
  5
929A
330
9229
100
AcDbEntity
  8
标注
100
AcDbTrace
 10
1356.290178075344
 20
172.44951044932
 30
0.0
 11
1356.50684474201
 21
172.44951044932
 31
0.0
 12
1356.398511408677
 22
173.09951044932
 32
0.0
 13
1356.398511408677
 23
173.09951044932
 33
0.0
  0
SOLID
  5
929B
330
9229
100
AcDbEntity
  8
标注
100
AcDbTrace
 10
1356.290178075344
 20
165.74951044932
 30
0.0
 11
1356.50684474201
 21
165.74951044932
 31
0.0
 12
1356.398511408677
 22
165.09951044932
 32
0.0
 13
1356.398511408677
 23
165.09951044932
 33
0.0
  0
MTEXT
  5
929C
330
9229
100
AcDbEntity
  8
标注
100
AcDbMText
 10
1356.398511408677
 20
169.0995104493202
 30
0.0
 40
0.65
 41
0.0
 71
     5
 72
     1
  1
\A1;8"
 11
0.0000000000000001
 21
1.0
 31
0.0
 73
     1
 44
1.0
1001
ACAD
1000
MTEXTBEGIN
1070
    73
1070
     1
1070
    44
1040
1.0
1070
    74
1070
     0
1000
MTEXTEND
  0
POINT
  5
929D
330
9229
100
AcDbEntity
  8
DEFPOINTS
 62
     0
100
AcDbPoint
 10
1358.388463621007
 20
173.09951044932
 30
0.0
  0
POINT
  5
929E
330
9229
100
AcDbEntity
  8
DEFPOINTS
 62
     0
100
AcDbPoint
 10
1358.388463621007
 20
165.09951044932
 30
0.0
  0
POINT
  5
929F
330
9229
100
AcDbEntity
  8
DEFPOINTS
 62
     0
100
AcDbPoint
 10
1356.398511408677
 20
165.09951044932
 30
0.0
  0
ENDBLK
  5
922B
330
9229
100
AcDbEntity
  8
0
100
AcDbBlockEnd
  0
BLOCK
  5
9237
330
9236
100
AcDbEntity
  8
0
100
AcDbBlockBegin
  2
*D204
 70
     1
 10
0.0
 20
0.0
 30
0.0
  3
*D204
  1

  0
LINE
  5
92A0
330
9236
100
AcDbEntity
  8
标注
  6
Continuous
370
    -2
100
AcDbLine
 10
1357.508463621007
 20
163.0995304493268
 30
0.0
 11
1354.182364817958
 21
163.0995304493268
 31
0.0
  0
LINE
  5
92A1
330
9236
100
AcDbEntity
  8
标注
  6
Continuous
370
    -2
100
AcDbLine
 10
1357.508463621007
 20
173.09951044932
 30
0.0
 11
1354.182364817958
 21
173.09951044932
 31
0.0
  0
LINE
  5
92A2
330
9236
100
AcDbEntity
  8
标注
  6
Continuous
370
    -2
100
AcDbLine
 10
1354.502364817958
 20
163.7495304493268
 30
0.0
 11
1354.502364817958
 21
168.2911571801872
 31
0.0
  0
LINE
  5
92A3
330
9236
100
AcDbEntity
  8
标注
  6
Continuous
370
    -2
100
AcDbLine
 10
1354.502364817958
 20
172.44951044932
 30
0.0
 11
1354.502364817958
 21
170.0820848745937
 31
0.0
  0
MTEXT
  5
92A4
330
9236
100
AcDbEntity
  8
标注
100
AcDbMText
 10
1354.502364817958
 20
169.1866210273907
 30
0.0
 40
0.65
 41
0.0
 71
     5
 72
     1
  1
\A1;10"
 11
0.0000000000000001
 21
1.0
 31
0.0
 73
     1
 44
1.0
1001
ACAD
1000
MTEXTBEGIN
1070
    73
1070
     1
1070
    44
1040
1.0
1070
    74
1070
     0
1000
MTEXTEND
  0
SOLID
  5
92A5
330
9236
100
AcDbEntity
  8
标注
100
AcDbTrace
 10
1354.394031484625
 20
163.7495304493268
 30
0.0
 11
1354.610698151291
 21
163.7495304493268
 31
0.0
 12
1354.502364817958
 22
163.0995304493268
 32
0.0
 13
1354.502364817958
 23
163.0995304493268
 33
0.0
  0
SOLID
  5
92A6
330
9236
100
AcDbEntity
  8
标注
100
AcDbTrace
 10
1354.394031484625
 20
172.44951044932
 30
0.0
 11
1354.610698151291
 21
172.44951044932
 31
0.0
 12
1354.502364817958
 22
173.09951044932
 32
0.0
 13
1354.502364817958
 23
173.09951044932
 33
0.0
  0
POINT
  5
92A7
330
9236
100
AcDbEntity
  8
DEFPOINTS
 62
     0
100
AcDbPoint
 10
1358.388463621007
 20
163.0995304493268
 30
0.0
  0
POINT
  5
92A8
330
9236
100
AcDbEntity
  8
DEFPOINTS
 62
     0
100
AcDbPoint
 10
1358.388463621007
 20
173.09951044932
 30
0.0
  0
POINT
  5
92A9
330
9236
100
AcDbEntity
  8
DEFPOINTS
 62
     0
100
AcDbPoint
 10
1354.502364817958
 20
173.09951044932
 30
0.0
  0
ENDBLK
  5
9238
330
9236
100
AcDbEntity
  8
0
100
AcDbBlockEnd
  0
BLOCK
  5
9244
330
9243
100
AcDbEntity
  8
0
100
AcDbBlockBegin
  2
*D205
 70
     1
 10
0.0
 20
0.0
 30
0.0
  3
*D205
  1

  0
LINE
  5
92AA
330
9243
100
AcDbEntity
  8
标注
  6
Continuous
370
    -2
100
AcDbLine
 10
1392.142413621015
 20
173.09951044932
 30
0.0
 11
1393.449907916618
 21
173.09951044932
 31
0.0
  0
LINE
  5
92AB
330
9243
100
AcDbEntity
  8
标注
  6
Continuous
370
    -2
100
AcDbLine
 10
1389.957953691051
 20
163.1274840189674
 30
0.0
 11
1393.449907916618
 21
163.1274840189674
 31
0.0
  0
LINE
  5
92AC
330
9243
100
AcDbEntity
  8
标注
  6
Continuous
370
    -2
100
AcDbLine
 10
1393.129907916618
 20
172.44951044932
 30
0.0
 11
1393.129907916618
 21
169.008961081347
 31
0.0
  0
LINE
  5
92AD
330
9243
100
AcDbEntity
  8
标注
  6
Continuous
370
    -2
100
AcDbLine
 10
1393.129907916618
 20
163.7774840189675
 30
0.0
 11
1393.129907916618
 21
167.2180333869405
 31
0.0
  0
SOLID
  5
92AE
330
9243
100
AcDbEntity
  8
标注
100
AcDbTrace
 10
1393.021574583284
 20
172.44951044932
 30
0.0
 11
1393.238241249951
 21
172.44951044932
 31
0.0
 12
1393.129907916618
 22
173.09951044932
 32
0.0
 13
1393.129907916618
 23
173.09951044932
 33
0.0
  0
SOLID
  5
92AF
330
9243
100
AcDbEntity
  8
标注
100
AcDbTrace
 10
1393.021574583284
 20
163.7774840189675
 30
0.0
 11
1393.238241249951
 21
163.7774840189675
 31
0.0
 12
1393.129907916618
 22
163.1274840189674
 32
0.0
 13
1393.129907916618
 23
163.1274840189674
 33
0.0
  0
MTEXT
  5
92B0
330
9243
100
AcDbEntity
  8
标注
100
AcDbMText
 10
1393.129907916618
 20
168.1134972341439
 30
0.0
 40
0.65
 41
0.0
 71
     5
 72
     1
  1
\A1;10"
 11
0.0000000000000001
 21
1.0
 31
0.0
 73
     1
 44
1.0
1001
ACAD
1000
MTEXTBEGIN
1070
    73
1070
     1
1070
    44
1040
1.0
1070
    74
1070
     0
1000
MTEXTEND
  0
POINT
  5
92B1
330
9243
100
AcDbEntity
  8
DEFPOINTS
 62
     0
100
AcDbPoint
 10
1391.262413621015
 20
173.09951044932
 30
0.0
  0
POINT
  5
92B2
330
9243
100
AcDbEntity
  8
DEFPOINTS
 62
     0
100
AcDbPoint
 10
1389.077953691051
 20
163.1274840189674
 30
0.0
  0
POINT
  5
92B3
330
9243
100
AcDbEntity
  8
DEFPOINTS
 62
     0
100
AcDbPoint
 10
1393.129907916618
 20
163.1274840189674
 30
0.0
  0
ENDBLK
  5
9245
330
9243
100
AcDbEntity
  8
0
100
AcDbBlockEnd
  0
BLOCK
  5
92B7
330
92B6
100
AcDbEntity
  8
0
100
AcDbBlockBegin
  2
*D206
 70
     1
 10
0.0
 20
0.0
 30
0.0
  3
*D206
  1

  0
LINE
  5
92D0
330
92B6
100
AcDbEntity
  8
标注
  6
Continuous
370
    -2
100
AcDbLine
 10
1390.311708621015
 20
131.4605860084406
 30
0.0
 11
1393.624668174972
 21
131.4605860084406
 31
0.0
  0
LINE
  5
92D1
330
92B6
100
AcDbEntity
  8
标注
  6
Continuous
370
    -2
100
AcDbLine
 10
1390.311708621015
 20
147.4605540084438
 30
0.0
 11
1393.624668174972
 21
147.4605540084438
 31
0.0
  0
LINE
  5
92D2
330
92B6
100
AcDbEntity
  8
标注
  6
Continuous
370
    -2
100
AcDbLine
 10
1393.304668174972
 20
132.1105860084406
 30
0.0
 11
1393.304668174972
 21
138.565106161239
 31
0.0
  0
LINE
  5
92D3
330
92B6
100
AcDbEntity
  8
标注
  6
Continuous
370
    -2
100
AcDbLine
 10
1393.304668174972
 20
146.8105540084438
 30
0.0
 11
1393.304668174972
 21
140.3560338556455
 31
0.0
  0
SOLID
  5
92D4
330
92B6
100
AcDbEntity
  8
标注
100
AcDbTrace
 10
1393.196334841638
 20
132.1105860084406
 30
0.0
 11
1393.413001508305
 21
132.1105860084406
 31
0.0
 12
1393.304668174972
 22
131.4605860084406
 32
0.0
 13
1393.304668174972
 23
131.4605860084406
 33
0.0
  0
SOLID
  5
92D5
330
92B6
100
AcDbEntity
  8
标注
100
AcDbTrace
 10
1393.196334841638
 20
146.8105540084438
 30
0.0
 11
1393.413001508305
 21
146.8105540084438
 31
0.0
 12
1393.304668174972
 22
147.4605540084438
 32
0.0
 13
1393.304668174972
 23
147.4605540084438
 33
0.0
  0
MTEXT
  5
92D6
330
92B6
100
AcDbEntity
  8
标注
100
AcDbMText
 10
1393.304668174972
 20
139.4605700084425
 30
0.0
 40
0.65
 41
0.0
 71
     5
 72
     1
  1
\A1;16"
 11
0.0000000000000001
 21
1.0
 31
0.0
 73
     1
 44
1.0
1001
ACAD
1000
MTEXTBEGIN
1070
    73
1070
     1
1070
    44
1040
1.0
1070
    74
1070
     0
1000
MTEXTEND
  0
POINT
  5
92D7
330
92B6
100
AcDbEntity
  8
DEFPOINTS
 62
     0
100
AcDbPoint
 10
1389.431708621015
 20
131.4605860084406
 30
0.0
  0
POINT
  5
92D8
330
92B6
100
AcDbEntity
  8
DEFPOINTS
 62
     0
100
AcDbPoint
 10
1389.431708621015
 20
147.4605540084438
 30
0.0
  0
POINT
  5
92D9
330
92B6
100
AcDbEntity
  8
DEFPOINTS
 62
     0
100
AcDbPoint
 10
1393.304668174972
 20
147.4605540084438
 30
0.0
  0
ENDBLK
  5
92B8
330
92B6
100
AcDbEntity
  8
0
100
AcDbBlockEnd
  0
BLOCK
  5
92C4
330
92C3
100
AcDbEntity
  8
0
100
AcDbBlockBegin
  2
*D207
 70
     1
 10
0.0
 20
0.0
 30
0.0
  3
*D207
  1

  0
LINE
  5
92DA
330
92C3
100
AcDbEntity
  8
标注
  6
Continuous
370
    -2
100
AcDbLine
 10
1392.142413621015
 20
128.9605910084205
 30
0.0
 11
1395.398474190817
 21
128.9605910084205
 31
0.0
  0
LINE
  5
92DB
330
92C3
100
AcDbEntity
  8
标注
  6
Continuous
370
    -2
100
AcDbLine
 10
1392.142413621015
 20
148.9605510084361
 30
0.0
 11
1395.398474190817
 21
148.9605510084361
 31
0.0
  0
LINE
  5
92DC
330
92C3
100
AcDbEntity
  8
标注
  6
Continuous
370
    -2
100
AcDbLine
 10
1395.078474190817
 20
129.6105910084205
 30
0.0
 11
1395.078474190817
 21
138.601743032017
 31
0.0
  0
LINE
  5
92DD
330
92C3
100
AcDbEntity
  8
标注
  6
Continuous
370
    -2
100
AcDbLine
 10
1395.078474190817
 20
148.3105510084361
 30
0.0
 11
1395.078474190817
 21
140.4649422134632
 31
0.0
  0
MTEXT
  5
92DE
330
92C3
100
AcDbEntity
  8
标注
100
AcDbMText
 10
1395.078474190817
 20
139.5333426227403
 30
0.0
 40
0.65
 41
0.0
 71
     5
 72
     1
  1
\A1;20"
 11
0.0000000000000001
 21
1.0
 31
0.0
 73
     1
 44
1.0
1001
ACAD
1000
MTEXTBEGIN
1070
    73
1070
     1
1070
    44
1040
1.0
1070
    74
1070
     0
1000
MTEXTEND
  0
SOLID
  5
92DF
330
92C3
100
AcDbEntity
  8
标注
100
AcDbTrace
 10
1394.970140857483
 20
129.6105910084205
 30
0.0
 11
1395.18680752415
 21
129.6105910084205
 31
0.0
 12
1395.078474190817
 22
128.9605910084205
 32
0.0
 13
1395.078474190817
 23
128.9605910084205
 33
0.0
  0
SOLID
  5
92E0
330
92C3
100
AcDbEntity
  8
标注
100
AcDbTrace
 10
1394.970140857483
 20
148.3105510084361
 30
0.0
 11
1395.18680752415
 21
148.3105510084361
 31
0.0
 12
1395.078474190817
 22
148.9605510084361
 32
0.0
 13
1395.078474190817
 23
148.9605510084361
 33
0.0
  0
POINT
  5
92E1
330
92C3
100
AcDbEntity
  8
DEFPOINTS
 62
     0
100
AcDbPoint
 10
1391.262413621015
 20
128.9605910084205
 30
0.0
  0
POINT
  5
92E2
330
92C3
100
AcDbEntity
  8
DEFPOINTS
 62
     0
100
AcDbPoint
 10
1391.262413621015
 20
148.9605510084361
 30
0.0
  0
POINT
  5
92E3
330
92C3
100
AcDbEntity
  8
DEFPOINTS
 62
     0
100
AcDbPoint
 10
1395.078474190817
 20
148.9605510084361
 30
0.0
  0
ENDBLK
  5
92C5
330
92C3
100
AcDbEntity
  8
0
100
AcDbBlockEnd
  0
BLOCK
  5
92E6
330
92E5
100
AcDbEntity
  8
0
100
AcDbBlockBegin
  2
*D208
 70
     1
 10
0.0
 20
0.0
 30
0.0
  3
*D208
  1

  0
LINE
  5
92F2
330
92E5
100
AcDbEntity
  8
标注
  6
Continuous
370
    -2
100
AcDbLine
 10
1391.008762213056
 20
96.03660235874675
 30
0.0
 11
1393.140131404996
 21
96.03660235874675
 31
0.0
  0
LINE
  5
92F3
330
92E5
100
AcDbEntity
  8
标注
  6
Continuous
370
    -2
100
AcDbLine
 10
1390.536322213044
 20
113.8318423587535
 30
0.0
 11
1393.140131404996
 21
113.8318423587535
 31
0.0
  0
LINE
  5
92F4
330
92E5
100
AcDbEntity
  8
标注
  6
Continuous
370
    -2
100
AcDbLine
 10
1392.820131404995
 20
96.68660235874675
 30
0.0
 11
1392.820131404995
 21
103.2814597393777
 31
0.0
  0
LINE
  5
92F5
330
92E5
100
AcDbEntity
  8
标注
  6
Continuous
370
    -2
100
AcDbLine
 10
1392.820131404995
 20
113.1818423587535
 30
0.0
 11
1392.820131404995
 21
106.5869849781225
 31
0.0
  0
SOLID
  5
92F6
330
92E5
100
AcDbEntity
  8
标注
100
AcDbTrace
 10
1392.711798071662
 20
96.68660235874675
 30
0.0
 11
1392.928464738329
 21
96.68660235874675
 31
0.0
 12
1392.820131404995
 22
96.03660235874675
 32
0.0
 13
1392.820131404995
 23
96.03660235874675
 33
0.0
  0
SOLID
  5
92F7
330
92E5
100
AcDbEntity
  8
标注
100
AcDbTrace
 10
1392.711798071662
 20
113.1818423587535
 30
0.0
 11
1392.928464738329
 21
113.1818423587535
 31
0.0
 12
1392.820131404995
 22
113.8318423587535
 32
0.0
 13
1392.820131404995
 23
113.8318423587535
 33
0.0
  0
MTEXT
  5
92F8
330
92E5
100
AcDbEntity
  8
标注
100
AcDbMText
 10
1392.820131404995
 20
104.9342223587503
 30
0.0
 40
0.65
 41
0.0
 71
     5
 72
     1
  1
\A1;17 3/4"
 11
0.0000000000000001
 21
1.0
 31
0.0
 73
     1
 44
1.0
1001
ACAD
1000
MTEXTBEGIN
1070
    73
1070
     1
1070
    44
1040
1.0
1070
    74
1070
     0
1000
MTEXTEND
  0
POINT
  5
92F9
330
92E5
100
AcDbEntity
  8
DEFPOINTS
 62
     0
100
AcDbPoint
 10
1390.128762213055
 20
96.03660235874675
 30
0.0
  0
POINT
  5
92FA
330
92E5
100
AcDbEntity
  8
DEFPOINTS
 62
     0
100
AcDbPoint
 10
1389.656322213044
 20
113.8318423587535
 30
0.0
  0
POINT
  5
92FB
330
92E5
100
AcDbEntity
  8
DEFPOINTS
 62
     0
100
AcDbPoint
 10
1392.820131404995
 20
113.8318423587535
 30
0.0
  0
ENDBLK
  5
92E7
330
92E5
100
AcDbEntity
  8
0
100
AcDbBlockEnd
  0
BLOCK
  5
930F
330
930E
100
AcDbEntity
  8
0
100
AcDbBlockBegin
  2
*D209
 70
     1
 10
0.0
 20
0.0
 30
0.0
  3
*D209
  1

  0
LINE
  5
9317
330
930E
100
AcDbEntity
  8
标注
  6
Continuous
370
    -2
100
AcDbLine
 10
1359.492101795278
 20
113.9545291822005
 30
0.0
 11
1358.940987908066
 21
114.299164472504
 31
0.0
  0
MTEXT
  5
9318
330
930E
100
AcDbEntity
  8
标注
100
AcDbMText
 10
1359.692369830797
 20
114.5748129892748
 30
0.0
 40
0.65
 41
0.0
 71
     5
 72
     1
  1
\A1;2-R1/2"
 11
0.8478675187869473
 21
-0.5302081389285397
 31
0.0
 73
     1
 44
1.0
1001
ACAD
1000
MTEXTBEGIN
1070
    73
1070
     1
1070
    44
1040
1.0
1070
    74
1070
     0
1000
MTEXTEND
  0
LINE
  5
9319
330
930E
100
AcDbEntity
  8
标注
  6
Continuous
370
    -2
100
AcDbLine
 10
1360.443782213065
 20
113.3594023587415
 30
0.0
 11
1360.043215682489
 21
113.6098938918968
 31
0.0
  0
SOLID
  5
931A
330
930E
100
AcDbEntity
  8
标注
100
AcDbTrace
 10
1359.549541010328
 20
114.0463814967356
 30
0.0
 11
1359.434662580227
 21
113.8626768676652
 31
0.0
 12
1360.043215682489
 22
113.6098938918968
 32
0.0
 13
1360.043215682489
 23
113.6098938918968
 33
0.0
  0
POINT
  5
931B
330
930E
100
AcDbEntity
  8
DEFPOINTS
 62
     0
100
AcDbPoint
 10
1360.043215682489
 20
113.6098938918968
 30
0.0
  0
POINT
  5
931C
330
930E
100
AcDbEntity
  8
DEFPOINTS
 62
     0
100
AcDbPoint
 10
1360.443782213065
 20
113.3594023587415
 30
0.0
  0
ENDBLK
  5
9310
330
930E
100
AcDbEntity
  8
0
100
AcDbBlockEnd
  0
BLOCK
  5
9339
330
9338
100
AcDbEntity
  8
0
100
AcDbBlockBegin
  2
*D210
 70
     1
 10
0.0
 20
0.0
 30
0.0
  3
*D210
  1

  0
LINE
  5
9351
330
9338
100
AcDbEntity
  8
标注
  6
Continuous
370
    -2
100
AcDbLine
 10
1369.579424972799
 20
131.0296264763201
 30
0.0
 11
1369.181015112351
 21
130.5160414462642
 31
0.0
  0
MTEXT
  5
9352
330
9338
100
AcDbEntity
  8
标注
100
AcDbMText
 10
1370.734297657271
 20
133.0263209503491
 30
0.0
 40
0.65
 41
0.0
 71
     5
 72
     1
  1
\A1;4-R3/8"
 11
0.6129382468435838
 21
0.7901308154706498
 31
0.0
 73
     1
 44
1.0
1001
ACAD
1000
MTEXTBEGIN
1070
    73
1070
     1
1070
    44
1040
1.0
1070
    74
1070
     0
1000
MTEXTEND
  0
LINE
  5
9353
330
9338
100
AcDbEntity
  8
标注
  6
Continuous
370
    -2
100
AcDbLine
 10
1370.21914862103
 20
131.8542860084267
 30
0.0
 11
1369.977834833247
 21
131.543211506376
 31
0.0
  0
SOLID
  5
9354
330
9338
100
AcDbEntity
  8
标注
100
AcDbTrace
 10
1369.493827467789
 20
131.0960281197282
 30
0.0
 11
1369.665022477808
 21
130.963224832912
 31
0.0
 12
1369.977834833247
 22
131.543211506376
 32
0.0
 13
1369.977834833247
 23
131.543211506376
 33
0.0
  0
POINT
  5
9355
330
9338
100
AcDbEntity
  8
DEFPOINTS
 62
     0
100
AcDbPoint
 10
1369.977834833247
 20
131.543211506376
 30
0.0
  0
POINT
  5
9356
330
9338
100
AcDbEntity
  8
DEFPOINTS
 62
     0
100
AcDbPoint
 10
1370.21914862103
 20
131.8542860084267
 30
0.0
  0
ENDBLK
  5
933A
330
9338
100
AcDbEntity
  8
0
100
AcDbBlockEnd
  0
BLOCK
  5
9343
330
9342
100
AcDbEntity
  8
0
100
AcDbBlockBegin
  2
*D211
 70
     1
 10
0.0
 20
0.0
 30
0.0
  3
*D211
  1

  0
LINE
  5
934B
330
9342
100
AcDbEntity
  8
标注
  6
Continuous
370
    -2
100
AcDbLine
 10
1359.575859494227
 20
131.0324204127229
 30
0.0
 11
1359.17521665394
 21
130.5205754024637
 31
0.0
  0
MTEXT
  5
934C
330
9342
100
AcDbEntity
  8
标注
100
AcDbMText
 10
1360.686249615159
 20
133.1543368266428
 30
0.0
 40
0.65
 41
0.0
 71
     5
 72
     1
  1
\A1;4-R3/8"
 11
0.6163736004407565
 21
0.7874538619371289
 31
0.0
 73
     1
 44
1.0
1001
ACAD
1000
MTEXTBEGIN
1070
    73
1070
     1
1070
    44
1040
1.0
1070
    74
1070
     0
1000
MTEXTEND
  0
LINE
  5
934D
330
9342
100
AcDbEntity
  8
标注
  6
Continuous
370
    -2
100
AcDbLine
 10
1360.219168621007
 20
131.8542860084268
 30
0.0
 11
1359.976502334513
 21
131.544265422982
 31
0.0
  0
SOLID
  5
934E
330
9342
100
AcDbEntity
  8
标注
100
AcDbTrace
 10
1359.490551992517
 20
131.0991942194373
 30
0.0
 11
1359.661166995936
 21
130.9656466060085
 31
0.0
 12
1359.976502334513
 22
131.544265422982
 32
0.0
 13
1359.976502334513
 23
131.544265422982
 33
0.0
  0
POINT
  5
934F
330
9342
100
AcDbEntity
  8
DEFPOINTS
 62
     0
100
AcDbPoint
 10
1359.976502334513
 20
131.544265422982
 30
0.0
  0
POINT
  5
9350
330
9342
100
AcDbEntity
  8
DEFPOINTS
 62
     0
100
AcDbPoint
 10
1360.219168621007
 20
131.8542860084268
 30
0.0
  0
ENDBLK
  5
9344
330
9342
100
AcDbEntity
  8
0
100
AcDbBlockEnd
  0
BLOCK
  5
949D
330
949C
100
AcDbEntity
  8
0
100
AcDbBlockBegin
  2
*D214
 70
     1
 10
0.0
 20
0.0
 30
0.0
  3
*D214
  1

  0
LINE
  5
95E8
330
949C
100
AcDbEntity
  8
标注
  6
Continuous
370
    -2
100
AcDbLine
 10
1389.614510190892
 20
93.03531308190168
 30
0.0
 11
1389.614510190892
 21
91.31781914750281
 31
0.0
  0
LINE
  5
95E9
330
949C
100
AcDbEntity
  8
标注
  6
Continuous
370
    -2
100
AcDbLine
 10
1411.519978190892
 20
93.03531308190168
 30
0.0
 11
1411.519978190892
 21
91.31781914750281
 31
0.0
  0
LINE
  5
95EA
330
949C
100
AcDbEntity
  8
标注
  6
Continuous
370
    -2
100
AcDbLine
 10
1390.264510190893
 20
91.63781914750279
 30
0.0
 11
1398.878345828
 21
91.63781914750279
 31
0.0
  0
LINE
  5
95EB
330
949C
100
AcDbEntity
  8
标注
  6
Continuous
370
    -2
100
AcDbLine
 10
1410.869978190892
 20
91.63781914750279
 30
0.0
 11
1402.256142553784
 21
91.63781914750279
 31
0.0
  0
SOLID
  5
95EC
330
949C
100
AcDbEntity
  8
标注
100
AcDbTrace
 10
1390.264510190893
 20
91.74615248083613
 30
0.0
 11
1390.264510190893
 21
91.52948581416946
 31
0.0
 12
1389.614510190892
 22
91.63781914750279
 32
0.0
 13
1389.614510190892
 23
91.63781914750279
 33
0.0
  0
SOLID
  5
95ED
330
949C
100
AcDbEntity
  8
标注
100
AcDbTrace
 10
1410.869978190892
 20
91.74615248083613
 30
0.0
 11
1410.869978190892
 21
91.52948581416946
 31
0.0
 12
1411.519978190892
 22
91.63781914750279
 32
0.0
 13
1411.519978190892
 23
91.63781914750279
 33
0.0
  0
MTEXT
  5
95EE
330
949C
100
AcDbEntity
  8
标注
100
AcDbMText
 10
1400.567244190892
 20
91.63781914750279
 30
0.0
 40
0.65
 41
0.0
 71
     5
 72
     1
  1
\A1;21 7/8"
 73
     1
 44
1.0
1001
ACAD
1000
MTEXTBEGIN
1070
    73
1070
     1
1070
    44
1040
1.0
1070
    74
1070
     0
1000
MTEXTEND
  0
POINT
  5
95EF
330
949C
100
AcDbEntity
  8
DEFPOINTS
 62
     0
100
AcDbPoint
 10
1389.614510190892
 20
93.91531308190167
 30
0.0
  0
POINT
  5
95F0
330
949C
100
AcDbEntity
  8
DEFPOINTS
 62
     0
100
AcDbPoint
 10
1411.519978190892
 20
93.91531308190167
 30
0.0
  0
POINT
  5
95F1
330
949C
100
AcDbEntity
  8
DEFPOINTS
 62
     0
100
AcDbPoint
 10
1411.519978190892
 20
91.63781914750279
 30
0.0
  0
ENDBLK
  5
949E
330
949C
100
AcDbEntity
  8
0
100
AcDbBlockEnd
  0
BLOCK
  5
94AB
330
94AA
100
AcDbEntity
  8
0
100
AcDbBlockBegin
  2
*D215
 70
     1
 10
0.0
 20
0.0
 30
0.0
  3
*D215
  1

  0
LINE
  5
95F2
330
94AA
100
AcDbEntity
  8
标注
  6
Continuous
370
    -2
100
AcDbLine
 10
1411.927538190892
 20
93.44287308188938
 30
0.0
 11
1415.692351349557
 21
93.44287308188938
 31
0.0
  0
LINE
  5
95F3
330
94AA
100
AcDbEntity
  8
标注
  6
Continuous
370
    -2
100
AcDbLine
 10
1407.906202311377
 20
110.3522880818913
 30
0.0
 11
1415.692351349557
 21
110.3522880818913
 31
0.0
  0
LINE
  5
95F4
330
94AA
100
AcDbEntity
  8
标注
  6
Continuous
370
    -2
100
AcDbLine
 10
1415.372351349558
 20
94.0928730818894
 30
0.0
 11
1415.372351349558
 21
100.2448179625179
 31
0.0
  0
LINE
  5
95F5
330
94AA
100
AcDbEntity
  8
标注
  6
Continuous
370
    -2
100
AcDbLine
 10
1415.372351349558
 20
109.7022880818913
 30
0.0
 11
1415.372351349558
 21
103.5503432012627
 31
0.0
  0
SOLID
  5
95F6
330
94AA
100
AcDbEntity
  8
标注
100
AcDbTrace
 10
1415.264018016224
 20
94.0928730818894
 30
0.0
 11
1415.480684682891
 21
94.0928730818894
 31
0.0
 12
1415.372351349558
 22
93.44287308188938
 32
0.0
 13
1415.372351349558
 23
93.44287308188938
 33
0.0
  0
SOLID
  5
95F7
330
94AA
100
AcDbEntity
  8
标注
100
AcDbTrace
 10
1415.264018016224
 20
109.7022880818913
 30
0.0
 11
1415.480684682891
 21
109.7022880818913
 31
0.0
 12
1415.372351349558
 22
110.3522880818913
 32
0.0
 13
1415.372351349558
 23
110.3522880818913
 33
0.0
  0
MTEXT
  5
95F8
330
94AA
100
AcDbEntity
  8
标注
100
AcDbMText
 10
1415.372351349558
 20
101.8975805818905
 30
0.0
 40
0.65
 41
0.0
 71
     5
 72
     1
  1
\A1;16 7/8"
 11
0.0000000000000001
 21
1.0
 31
0.0
 73
     1
 44
1.0
1001
ACAD
1000
MTEXTBEGIN
1070
    73
1070
     1
1070
    44
1040
1.0
1070
    74
1070
     0
1000
MTEXTEND
  0
POINT
  5
95F9
330
94AA
100
AcDbEntity
  8
DEFPOINTS
 62
     0
100
AcDbPoint
 10
1411.047538190892
 20
93.44287308188938
 30
0.0
  0
POINT
  5
95FA
330
94AA
100
AcDbEntity
  8
DEFPOINTS
 62
     0
100
AcDbPoint
 10
1407.026202311376
 20
110.3522880818913
 30
0.0
  0
POINT
  5
95FB
330
94AA
100
AcDbEntity
  8
DEFPOINTS
 62
     0
100
AcDbPoint
 10
1415.372351349558
 20
110.3522880818913
 30
0.0
  0
ENDBLK
  5
94AC
330
94AA
100
AcDbEntity
  8
0
100
AcDbBlockEnd
  0
BLOCK
  5
94B9
330
94B8
100
AcDbEntity
  8
0
100
AcDbBlockBegin
  2
*D216
 70
     1
 10
0.0
 20
0.0
 30
0.0
  3
*D216
  1

  0
LINE
  5
95FC
330
94B8
100
AcDbEntity
  8
标注
  6
Continuous
370
    -2
100
AcDbLine
 10
1393.912595014977
 20
111.2322880818913
 30
0.0
 11
1393.912595014977
 21
112.539973015136
 31
0.0
  0
LINE
  5
95FD
330
94B8
100
AcDbEntity
  8
标注
  6
Continuous
370
    -2
100
AcDbLine
 10
1407.221893366791
 20
111.2322880818913
 30
0.0
 11
1407.221893366791
 21
112.539973015136
 31
0.0
  0
LINE
  5
95FE
330
94B8
100
AcDbEntity
  8
标注
  6
Continuous
370
    -2
100
AcDbLine
 10
1394.562595014977
 20
112.2199730151361
 30
0.0
 11
1398.914481571511
 21
112.2199730151361
 31
0.0
  0
LINE
  5
95FF
330
94B8
100
AcDbEntity
  8
标注
  6
Continuous
370
    -2
100
AcDbLine
 10
1406.571893366791
 20
112.2199730151361
 30
0.0
 11
1402.220006810256
 21
112.2199730151361
 31
0.0
  0
SOLID
  5
9600
330
94B8
100
AcDbEntity
  8
标注
100
AcDbTrace
 10
1394.562595014977
 20
112.3283063484694
 30
0.0
 11
1394.562595014977
 21
112.1116396818027
 31
0.0
 12
1393.912595014977
 22
112.2199730151361
 32
0.0
 13
1393.912595014977
 23
112.2199730151361
 33
0.0
  0
SOLID
  5
9601
330
94B8
100
AcDbEntity
  8
标注
100
AcDbTrace
 10
1406.571893366791
 20
112.3283063484694
 30
0.0
 11
1406.571893366791
 21
112.1116396818027
 31
0.0
 12
1407.221893366791
 22
112.2199730151361
 32
0.0
 13
1407.221893366791
 23
112.2199730151361
 33
0.0
  0
MTEXT
  5
9602
330
94B8
100
AcDbEntity
  8
标注
100
AcDbMText
 10
1400.567244190884
 20
112.2199730151361
 30
0.0
 40
0.65
 41
0.0
 71
     5
 72
     1
  1
\A1;13 1/4"
 73
     1
 44
1.0
1001
ACAD
1000
MTEXTBEGIN
1070
    73
1070
     1
1070
    44
1040
1.0
1070
    74
1070
     0
1000
MTEXTEND
  0
POINT
  5
9603
330
94B8
100
AcDbEntity
  8
DEFPOINTS
 62
     0
100
AcDbPoint
 10
1393.912595014977
 20
110.3522880818913
 30
0.0
  0
POINT
  5
9604
330
94B8
100
AcDbEntity
  8
DEFPOINTS
 62
     0
100
AcDbPoint
 10
1407.221893366791
 20
110.3522880818913
 30
0.0
  0
POINT
  5
9605
330
94B8
100
AcDbEntity
  8
DEFPOINTS
 62
     0
100
AcDbPoint
 10
1407.221893366791
 20
112.2199730151361
 30
0.0
  0
ENDBLK
  5
94BA
330
94B8
100
AcDbEntity
  8
0
100
AcDbBlockEnd
  0
BLOCK
  5
94C7
330
94C6
100
AcDbEntity
  8
0
100
AcDbBlockBegin
  2
*D217
 70
     1
 10
0.0
 20
0.0
 30
0.0
  3
*D217
  1

  0
LINE
  5
9606
330
94C6
100
AcDbEntity
  8
标注
  6
Continuous
370
    -2
100
AcDbLine
 10
1412.399978190875
 20
106.0542032578072
 30
0.0
 11
1413.591636289388
 21
106.0542032578072
 31
0.0
  0
LINE
  5
9607
330
94C6
100
AcDbEntity
  8
标注
  6
Continuous
370
    -2
100
AcDbLine
 10
1408.101893366791
 20
110.3522880818913
 30
0.0
 11
1413.591636289388
 21
110.3522880818913
 31
0.0
  0
LINE
  5
9608
330
94C6
100
AcDbEntity
  8
标注
  6
Continuous
370
    -2
100
AcDbLine
 10
1413.271636289388
 20
105.4042032578072
 30
0.0
 11
1413.271636289388
 21
104.7542032578072
 31
0.0
  0
LINE
  5
9609
330
94C6
100
AcDbEntity
  8
标注
  6
Continuous
370
    -2
100
AcDbLine
 10
1413.271636289388
 20
111.0022880818913
 30
0.0
 11
1413.271636289388
 21
111.6522880818913
 31
0.0
  0
LINE
  5
960A
330
94C6
100
AcDbEntity
  8
标注
  6
Continuous
370
    -2
100
AcDbLine
 10
1413.271636289388
 20
106.0542032578072
 30
0.0
 11
1413.271636289388
 21
106.7593166111862
 31
0.0
  0
LINE
  5
960B
330
94C6
100
AcDbEntity
  8
标注
  6
Continuous
370
    -2
100
AcDbLine
 10
1413.271636289388
 20
110.3522880818913
 30
0.0
 11
1413.271636289388
 21
109.6471747285123
 31
0.0
  0
SOLID
  5
960C
330
94C6
100
AcDbEntity
  8
标注
100
AcDbTrace
 10
1413.163302956055
 20
105.4042032578072
 30
0.0
 11
1413.379969622721
 21
105.4042032578072
 31
0.0
 12
1413.271636289388
 22
106.0542032578072
 32
0.0
 13
1413.271636289388
 23
106.0542032578072
 33
0.0
  0
SOLID
  5
960D
330
94C6
100
AcDbEntity
  8
标注
100
AcDbTrace
 10
1413.163302956055
 20
111.0022880818913
 30
0.0
 11
1413.379969622721
 21
111.0022880818913
 31
0.0
 12
1413.271636289388
 22
110.3522880818913
 32
0.0
 13
1413.271636289388
 23
110.3522880818913
 33
0.0
  0
MTEXT
  5
960E
330
94C6
100
AcDbEntity
  8
标注
100
AcDbMText
 10
1413.271636289388
 20
108.2032456698495
 30
0.0
 40
0.65
 41
0.0
 71
     5
 72
     1
  1
\A1;4 1/4"
 11
0.0000000000000001
 21
1.0
 31
0.0
 73
     1
 44
1.0
1001
ACAD
1000
MTEXTBEGIN
1070
    73
1070
     1
1070
    44
1040
1.0
1070
    74
1070
     0
1000
MTEXTEND
  0
POINT
  5
960F
330
94C6
100
AcDbEntity
  8
DEFPOINTS
 62
     0
100
AcDbPoint
 10
1411.519978190875
 20
106.0542032578072
 30
0.0
  0
POINT
  5
9610
330
94C6
100
AcDbEntity
  8
DEFPOINTS
 62
     0
100
AcDbPoint
 10
1407.221893366791
 20
110.3522880818913
 30
0.0
  0
POINT
  5
9611
330
94C6
100
AcDbEntity
  8
DEFPOINTS
 62
     0
100
AcDbPoint
 10
1413.271636289388
 20
110.3522880818913
 30
0.0
  0
ENDBLK
  5
94C8
330
94C6
100
AcDbEntity
  8
0
100
AcDbBlockEnd
  0
BLOCK
  5
94D7
330
94D6
100
AcDbEntity
  8
0
100
AcDbBlockBegin
  2
*D218
 70
     1
 10
0.0
 20
0.0
 30
0.0
  3
*D218
  1

  0
ARC
  5
9612
330
94D6
100
AcDbEntity
  8
标注
  6
Continuous
 62
     3
370
    13
100
AcDbCircle
 10
1407.221893366791
 20
110.3522880818913
 30
0.0
 40
2.506904623228441
100
AcDbArc
 50
194.8978047711557
 51
225.2435135982266
  0
ARC
  5
9613
330
94D6
100
AcDbEntity
  8
标注
  6
Continuous
 62
     3
370
    13
100
AcDbCircle
 10
1407.221893366791
 20
110.3522880818913
 30
0.0
 40
2.506904623228441
100
AcDbArc
 50
269.7564864017733
 51
300.102195228845
  0
SOLID
  5
9614
330
94D6
100
AcDbEntity
  8
标注
 62
     3
100
AcDbTrace
 10
1404.691836915479
 20
109.6937289699146
 30
0.0
 11
1404.906675104665
 21
109.7218180587512
 31
0.0
 12
1404.714988743562
 22
110.3522880818913
 32
0.0
 13
1404.714988743562
 23
110.3522880818913
 33
0.0
  0
SOLID
  5
9615
330
94D6
100
AcDbEntity
  8
标注
 62
     3
100
AcDbTrace
 10
1408.41319027117
 20
108.2693719201181
 30
0.0
 11
1408.545241826408
 21
108.097596394493
 31
0.0
 12
1408.994542625664
 22
108.5796388230187
 32
0.0
 13
1408.994542625664
 23
108.5796388230187
 33
0.0
  0
MTEXT
  5
9616
330
94D6
100
AcDbEntity
  8
标注
 62
     3
100
AcDbMText
 10
1406.262542500962
 20
108.0362102105326
 30
0.0
 40
0.65
 41
0.0
 71
     5
 72
     1
  1
\A1;135\U+00B0
 11
0.9238795325112866
 21
-0.3826834323650901
 31
0.0
 73
     1
 44
1.0
1001
ACAD
1000
MTEXTBEGIN
1070
    73
1070
     1
1070
    44
1040
1.0
1070
    74
1070
     0
1000
MTEXTEND
  0
POINT
  5
9617
330
94D6
100
AcDbEntity
  8
DEFPOINTS
 62
     0
100
AcDbPoint
 10
1405.449244107918
 20
108.5796388230185
 30
0.0
  0
POINT
  5
9618
330
94D6
100
AcDbEntity
  8
DEFPOINTS
 62
     0
100
AcDbPoint
 10
1407.36026783909
 20
110.2139136095925
 30
0.0
  0
POINT
  5
9619
330
94D6
100
AcDbEntity
  8
DEFPOINTS
 62
     0
100
AcDbPoint
 10
1393.912595014977
 20
110.3522880818911
 30
0.0
  0
POINT
  5
961A
330
94D6
100
AcDbEntity
  8
DEFPOINTS
 62
     0
100
AcDbPoint
 10
1407.026202311377
 20
110.3522880818913
 30
0.0
  0
POINT
  5
961B
330
94D6
100
AcDbEntity
  8
DEFPOINTS
 62
     0
100
AcDbPoint
 10
1411.382061272468
 20
106.1921201762147
 30
0.0
  0
ENDBLK
  5
94D8
330
94D6
100
AcDbEntity
  8
0
100
AcDbBlockEnd
  0
BLOCK
  5
9503
330
9502
100
AcDbEntity
  8
0
100
AcDbBlockBegin
  2
*D219
 70
     1
 10
0.0
 20
0.0
 30
0.0
  3
*D219
  1

  0
LINE
  5
961C
330
9502
100
AcDbEntity
  8
标注
  6
Continuous
370
    -2
100
AcDbLine
 10
1389.385252855901
 20
93.03924664395868
 30
0.0
 11
1388.978903057486
 21
92.53192047537686
 31
0.0
  0
MTEXT
  5
961D
330
9502
100
AcDbEntity
  8
标注
100
AcDbMText
 10
1390.565189290278
 20
94.99531081716838
 30
0.0
 40
0.65
 41
0.0
 71
     5
 72
     1
  1
\A1;6-R1/2"
 11
0.625153536023269
 21
0.7805017978183032
 31
0.0
 73
     1
 44
1.0
1001
ACAD
1000
MTEXTBEGIN
1070
    73
1070
     1
1070
    44
1040
1.0
1070
    74
1070
     0
1000
MTEXTEND
  0
LINE
  5
961E
330
9502
100
AcDbEntity
  8
标注
  6
Continuous
370
    -2
100
AcDbLine
 10
1390.086950190875
 20
93.91531308190167
 30
0.0
 11
1389.791602654316
 21
93.54657281254072
 31
0.0
  0
SOLID
  5
961F
330
9502
100
AcDbEntity
  8
标注
100
AcDbTrace
 10
1389.30069849447
 20
93.10697161036136
 30
0.0
 11
1389.469807217331
 21
92.97152167755621
 31
0.0
 12
1389.791602654316
 22
93.54657281254072
 32
0.0
 13
1389.791602654316
 23
93.54657281254072
 33
0.0
  0
POINT
  5
9620
330
9502
100
AcDbEntity
  8
DEFPOINTS
 62
     0
100
AcDbPoint
 10
1389.791602654316
 20
93.54657281254072
 30
0.0
  0
POINT
  5
9621
330
9502
100
AcDbEntity
  8
DEFPOINTS
 62
     0
100
AcDbPoint
 10
1390.086950190875
 20
93.91531308190167
 30
0.0
  0
ENDBLK
  5
9504
330
9502
100
AcDbEntity
  8
0
100
AcDbBlockEnd
  0
BLOCK
  5
9513
330
9512
100
AcDbEntity
  8
0
100
AcDbBlockBegin
  2
*D220
 70
     1
 10
0.0
 20
0.0
 30
0.0
  3
*D220
  1

  0
LINE
  5
9622
330
9512
100
AcDbEntity
  8
标注
  6
Continuous
370
    -2
100
AcDbLine
 10
1389.69325019089
 20
128.1534792229142
 30
0.0
 11
1389.69325019089
 21
125.8007006719051
 31
0.0
  0
LINE
  5
9623
330
9512
100
AcDbEntity
  8
标注
  6
Continuous
370
    -2
100
AcDbLine
 10
1411.441238190878
 20
128.1534792229142
 30
0.0
 11
1411.441238190878
 21
125.8007006719051
 31
0.0
  0
LINE
  5
9624
330
9512
100
AcDbEntity
  8
标注
  6
Continuous
370
    -2
100
AcDbLine
 10
1390.34325019089
 20
126.1207006719051
 30
0.0
 11
1398.878345827992
 21
126.1207006719051
 31
0.0
  0
LINE
  5
9625
330
9512
100
AcDbEntity
  8
标注
  6
Continuous
370
    -2
100
AcDbLine
 10
1410.791238190878
 20
126.1207006719051
 30
0.0
 11
1402.256142553776
 21
126.1207006719051
 31
0.0
  0
SOLID
  5
9626
330
9512
100
AcDbEntity
  8
标注
100
AcDbTrace
 10
1390.34325019089
 20
126.2290340052384
 30
0.0
 11
1390.34325019089
 21
126.0123673385718
 31
0.0
 12
1389.69325019089
 22
126.1207006719051
 32
0.0
 13
1389.69325019089
 23
126.1207006719051
 33
0.0
  0
SOLID
  5
9627
330
9512
100
AcDbEntity
  8
标注
100
AcDbTrace
 10
1410.791238190878
 20
126.2290340052384
 30
0.0
 11
1410.791238190878
 21
126.0123673385718
 31
0.0
 12
1411.441238190878
 22
126.1207006719051
 32
0.0
 13
1411.441238190878
 23
126.1207006719051
 33
0.0
  0
MTEXT
  5
9628
330
9512
100
AcDbEntity
  8
标注
100
AcDbMText
 10
1400.567244190884
 20
126.1207006719051
 30
0.0
 40
0.65
 41
0.0
 71
     5
 72
     1
  1
\A1;21 3/4"
 73
     1
 44
1.0
1001
ACAD
1000
MTEXTBEGIN
1070
    73
1070
     1
1070
    44
1040
1.0
1070
    74
1070
     0
1000
MTEXTEND
  0
POINT
  5
9629
330
9512
100
AcDbEntity
  8
DEFPOINTS
 62
     0
100
AcDbPoint
 10
1389.69325019089
 20
129.0334792229142
 30
0.0
  0
POINT
  5
962A
330
9512
100
AcDbEntity
  8
DEFPOINTS
 62
     0
100
AcDbPoint
 10
1411.441238190878
 20
129.0334792229142
 30
0.0
  0
POINT
  5
962B
330
9512
100
AcDbEntity
  8
DEFPOINTS
 62
     0
100
AcDbPoint
 10
1411.441238190878
 20
126.1207006719051
 30
0.0
  0
ENDBLK
  5
9514
330
9512
100
AcDbEntity
  8
0
100
AcDbBlockEnd
  0
BLOCK
  5
9521
330
9520
100
AcDbEntity
  8
0
100
AcDbBlockBegin
  2
*D221
 70
     1
 10
0.0
 20
0.0
 30
0.0
  3
*D221
  1

  0
LINE
  5
962C
330
9520
100
AcDbEntity
  8
标注
  6
Continuous
370
    -2
100
AcDbLine
 10
1388.693252190876
 20
127.6088057853705
 30
0.0
 11
1388.693252190876
 21
123.9766535345171
 31
0.0
  0
LINE
  5
962D
330
9520
100
AcDbEntity
  8
标注
  6
Continuous
370
    -2
100
AcDbLine
 10
1412.441236190892
 20
127.6088057853705
 30
0.0
 11
1412.441236190892
 21
123.9766535345171
 31
0.0
  0
LINE
  5
962E
330
9520
100
AcDbEntity
  8
标注
  6
Continuous
370
    -2
100
AcDbLine
 10
1389.343252190876
 20
124.2966535345171
 30
0.0
 11
1398.878345827992
 21
124.2966535345171
 31
0.0
  0
LINE
  5
962F
330
9520
100
AcDbEntity
  8
标注
  6
Continuous
370
    -2
100
AcDbLine
 10
1411.791236190892
 20
124.2966535345171
 30
0.0
 11
1402.256142553776
 21
124.2966535345171
 31
0.0
  0
SOLID
  5
9630
330
9520
100
AcDbEntity
  8
标注
100
AcDbTrace
 10
1389.343252190876
 20
124.4049868678504
 30
0.0
 11
1389.343252190876
 21
124.1883202011837
 31
0.0
 12
1388.693252190876
 22
124.2966535345171
 32
0.0
 13
1388.693252190876
 23
124.2966535345171
 33
0.0
  0
SOLID
  5
9631
330
9520
100
AcDbEntity
  8
标注
100
AcDbTrace
 10
1411.791236190892
 20
124.4049868678504
 30
0.0
 11
1411.791236190892
 21
124.1883202011837
 31
0.0
 12
1412.441236190892
 22
124.2966535345171
 32
0.0
 13
1412.441236190892
 23
124.2966535345171
 33
0.0
  0
MTEXT
  5
9632
330
9520
100
AcDbEntity
  8
标注
100
AcDbMText
 10
1400.567244190884
 20
124.2966535345171
 30
0.0
 40
0.65
 41
0.0
 71
     5
 72
     1
  1
\A1;23 3/4"
 73
     1
 44
1.0
1001
ACAD
1000
MTEXTBEGIN
1070
    73
1070
     1
1070
    44
1040
1.0
1070
    74
1070
     0
1000
MTEXTEND
  0
POINT
  5
9633
330
9520
100
AcDbEntity
  8
DEFPOINTS
 62
     0
100
AcDbPoint
 10
1388.693252190876
 20
128.4888057853706
 30
0.0
  0
POINT
  5
9634
330
9520
100
AcDbEntity
  8
DEFPOINTS
 62
     0
100
AcDbPoint
 10
1412.441236190892
 20
128.4888057853706
 30
0.0
  0
POINT
  5
9635
330
9520
100
AcDbEntity
  8
DEFPOINTS
 62
     0
100
AcDbPoint
 10
1412.441236190892
 20
124.2966535345171
 30
0.0
  0
ENDBLK
  5
9522
330
9520
100
AcDbEntity
  8
0
100
AcDbBlockEnd
  0
BLOCK
  5
952F
330
952E
100
AcDbEntity
  8
0
100
AcDbBlockBegin
  2
*D222
 70
     1
 10
0.0
 20
0.0
 30
0.0
  3
*D222
  1

  0
LINE
  5
9636
330
952E
100
AcDbEntity
  8
标注
  6
Continuous
370
    -2
100
AcDbLine
 10
1411.927538190892
 20
128.6397792228991
 30
0.0
 11
1415.011301461141
 21
128.6397792228991
 31
0.0
  0
LINE
  5
9637
330
952E
100
AcDbEntity
  8
标注
  6
Continuous
370
    -2
100
AcDbLine
 10
1407.906202311377
 20
145.3917142229206
 30
0.0
 11
1415.011301461141
 21
145.3917142229206
 31
0.0
  0
LINE
  5
9638
330
952E
100
AcDbEntity
  8
标注
  6
Continuous
370
    -2
100
AcDbLine
 10
1414.691301461141
 20
129.2897792228991
 30
0.0
 11
1414.691301461141
 21
135.3629841035375
 31
0.0
  0
LINE
  5
9639
330
952E
100
AcDbEntity
  8
标注
  6
Continuous
370
    -2
100
AcDbLine
 10
1414.691301461141
 20
144.7417142229206
 30
0.0
 11
1414.691301461141
 21
138.6685093422824
 31
0.0
  0
SOLID
  5
963A
330
952E
100
AcDbEntity
  8
标注
100
AcDbTrace
 10
1414.582968127807
 20
129.2897792228991
 30
0.0
 11
1414.799634794474
 21
129.2897792228991
 31
0.0
 12
1414.691301461141
 22
128.6397792228991
 32
0.0
 13
1414.691301461141
 23
128.6397792228991
 33
0.0
  0
SOLID
  5
963B
330
952E
100
AcDbEntity
  8
标注
100
AcDbTrace
 10
1414.582968127807
 20
144.7417142229206
 30
0.0
 11
1414.799634794474
 21
144.7417142229206
 31
0.0
 12
1414.691301461141
 22
145.3917142229206
 32
0.0
 13
1414.691301461141
 23
145.3917142229206
 33
0.0
  0
MTEXT
  5
963C
330
952E
100
AcDbEntity
  8
标注
100
AcDbMText
 10
1414.691301461141
 20
137.0157467229101
 30
0.0
 40
0.65
 41
0.0
 71
     5
 72
     1
  1
\A1;16 3/4"
 11
0.0000000000000001
 21
1.0
 31
0.0
 73
     1
 44
1.0
1001
ACAD
1000
MTEXTBEGIN
1070
    73
1070
     1
1070
    44
1040
1.0
1070
    74
1070
     0
1000
MTEXTEND
  0
POINT
  5
963D
330
952E
100
AcDbEntity
  8
DEFPOINTS
 62
     0
100
AcDbPoint
 10
1411.047538190892
 20
128.6397792228991
 30
0.0
  0
POINT
  5
963E
330
952E
100
AcDbEntity
  8
DEFPOINTS
 62
     0
100
AcDbPoint
 10
1407.026202311376
 20
145.3917142229206
 30
0.0
  0
POINT
  5
963F
330
952E
100
AcDbEntity
  8
DEFPOINTS
 62
     0
100
AcDbPoint
 10
1414.691301461141
 20
145.3917142229206
 30
0.0
  0
ENDBLK
  5
9530
330
952E
100
AcDbEntity
  8
0
100
AcDbBlockEnd
  0
BLOCK
  5
953D
330
953C
100
AcDbEntity
  8
0
100
AcDbBlockBegin
  2
*D223
 70
     1
 10
0.0
 20
0.0
 30
0.0
  3
*D223
  1

  0
LINE
  5
9640
330
953C
100
AcDbEntity
  8
标注
  6
Continuous
370
    -2
100
AcDbLine
 10
1412.321238190878
 20
127.6397812229144
 30
0.0
 11
1417.189694969753
 21
127.6397812229144
 31
0.0
  0
LINE
  5
9641
330
953C
100
AcDbEntity
  8
标注
  6
Continuous
370
    -2
100
AcDbLine
 10
1408.320415045233
 20
146.3917122229927
 30
0.0
 11
1417.189694969753
 21
146.3917122229927
 31
0.0
  0
LINE
  5
9642
330
953C
100
AcDbEntity
  8
标注
  6
Continuous
370
    -2
100
AcDbLine
 10
1416.869694969753
 20
128.2897812229144
 30
0.0
 11
1416.869694969753
 21
135.3629841035811
 31
0.0
  0
LINE
  5
9643
330
953C
100
AcDbEntity
  8
标注
  6
Continuous
370
    -2
100
AcDbLine
 10
1416.869694969753
 20
145.7417122229927
 30
0.0
 11
1416.869694969753
 21
138.668509342326
 31
0.0
  0
SOLID
  5
9644
330
953C
100
AcDbEntity
  8
标注
100
AcDbTrace
 10
1416.76136163642
 20
128.2897812229144
 30
0.0
 11
1416.978028303087
 21
128.2897812229144
 31
0.0
 12
1416.869694969753
 22
127.6397812229144
 32
0.0
 13
1416.869694969753
 23
127.6397812229144
 33
0.0
  0
SOLID
  5
9645
330
953C
100
AcDbEntity
  8
标注
100
AcDbTrace
 10
1416.76136163642
 20
145.7417122229927
 30
0.0
 11
1416.978028303087
 21
145.7417122229927
 31
0.0
 12
1416.869694969753
 22
146.3917122229927
 32
0.0
 13
1416.869694969753
 23
146.3917122229927
 33
0.0
  0
MTEXT
  5
9646
330
953C
100
AcDbEntity
  8
标注
100
AcDbMText
 10
1416.869694969753
 20
137.0157467229538
 30
0.0
 40
0.65
 41
0.0
 71
     5
 72
     1
  1
\A1;18 3/4"
 11
0.0000000000000001
 21
1.0
 31
0.0
 73
     1
 44
1.0
1001
ACAD
1000
MTEXTBEGIN
1070
    73
1070
     1
1070
    44
1040
1.0
1070
    74
1070
     0
1000
MTEXTEND
  0
POINT
  5
9647
330
953C
100
AcDbEntity
  8
DEFPOINTS
 62
     0
100
AcDbPoint
 10
1411.441238190878
 20
127.6397812229144
 30
0.0
  0
POINT
  5
9648
330
953C
100
AcDbEntity
  8
DEFPOINTS
 62
     0
100
AcDbPoint
 10
1407.440415045233
 20
146.3917122229927
 30
0.0
  0
POINT
  5
9649
330
953C
100
AcDbEntity
  8
DEFPOINTS
 62
     0
100
AcDbPoint
 10
1416.869694969753
 20
146.3917122229927
 30
0.0
  0
ENDBLK
  5
953E
330
953C
100
AcDbEntity
  8
0
100
AcDbBlockEnd
  0
BLOCK
  5
954B
330
954A
100
AcDbEntity
  8
0
100
AcDbBlockBegin
  2
*D224
 70
     1
 10
0.0
 20
0.0
 30
0.0
  3
*D224
  1

  0
ARC
  5
964A
330
954A
100
AcDbEntity
  8
标注
  6
Continuous
 62
     3
370
    13
100
AcDbCircle
 10
1411.441238190878
 20
141.1397542229125
 30
0.0
 40
3.015847313243201
100
AcDbArc
 50
147.3728806915746
 51
184.1490598072682
  0
ARC
  5
964B
330
954A
100
AcDbEntity
  8
标注
  6
Continuous
 62
     3
370
    13
100
AcDbCircle
 10
1411.441238190878
 20
141.1397542229125
 30
0.0
 40
3.015847313243201
100
AcDbArc
 50
220.8509401927317
 51
257.6271193084253
  0
SOLID
  5
964C
330
954A
100
AcDbEntity
  8
标注
 62
     3
100
AcDbTrace
 10
1408.816887541435
 20
142.833709094708
 30
0.0
 11
1408.985711965747
 21
142.6979049776849
 31
0.0
 12
1409.30871210466
 22
143.27228030913
 32
0.0
 13
1409.30871210466
 23
143.27228030913
 33
0.0
  0
SOLID
  5
964D
330
954A
100
AcDbEntity
  8
标注
 62
     3
100
AcDbTrace
 10
1410.806697910517
 20
138.3016560129303
 30
0.0
 11
1410.783349027316
 21
138.0862511056099
 31
0.0
 12
1411.441238190878
 22
138.1239069096693
 32
0.0
 13
1411.441238190878
 23
138.1239069096693
 33
0.0
  0
MTEXT
  5
964E
330
954A
100
AcDbEntity
  8
标注
 62
     3
100
AcDbMText
 10
1408.654958584993
 20
139.9856394215916
 30
0.0
 40
0.65
 41
0.0
 71
     5
 72
     1
  1
\A1;135\U+00B0
 11
0.3826834323650894
 21
-0.9238795325112869
 31
0.0
 73
     1
 44
1.0
1001
ACAD
1000
MTEXTBEGIN
1070
    73
1070
     1
1070
    44
1040
1.0
1070
    74
1070
     0
1000
MTEXTEND
  0
POINT
  5
964F
330
954A
100
AcDbEntity
  8
DEFPOINTS
 62
     0
100
AcDbPoint
 10
1408.425390877634
 20
141.1397542229125
 30
0.0
  0
POINT
  5
9650
330
954A
100
AcDbEntity
  8
DEFPOINTS
 62
     0
100
AcDbPoint
 10
1407.304590251138
 20
145.2764021626527
 30
0.0
  0
POINT
  5
9651
330
954A
100
AcDbEntity
  8
DEFPOINTS
 62
     0
100
AcDbPoint
 10
1411.441238190878
 20
140.9766783434052
 30
0.0
  0
POINT
  5
9652
330
954A
100
AcDbEntity
  8
DEFPOINTS
 62
     0
100
AcDbPoint
 10
1411.441238190878
 20
129.0334792229142
 30
0.0
  0
POINT
  5
9653
330
954A
100
AcDbEntity
  8
DEFPOINTS
 62
     0
100
AcDbPoint
 10
1411.325926130624
 20
141.2550662831664
 30
0.0
  0
ENDBLK
  5
954C
330
954A
100
AcDbEntity
  8
0
100
AcDbBlockEnd
  0
BLOCK
  5
9559
330
9558
100
AcDbEntity
  8
0
100
AcDbBlockBegin
  2
*D225
 70
     1
 10
0.0
 20
0.0
 30
0.0
  3
*D225
  1

  0
ARC
  5
9654
330
9558
100
AcDbEntity
  8
标注
  6
Continuous
 62
     3
370
    13
100
AcDbCircle
 10
1407.189278190884
 20
145.3917142229066
 30
0.0
 40
2.519194465408973
100
AcDbArc
 50
194.8247168969009
 51
225.3578570883623
  0
ARC
  5
9655
330
9558
100
AcDbEntity
  8
标注
  6
Continuous
 62
     3
370
    13
100
AcDbCircle
 10
1407.189278190884
 20
145.3917142229066
 30
0.0
 40
2.519194465408973
100
AcDbArc
 50
269.6421429116376
 51
300.1752831030992
  0
SOLID
  5
9656
330
9558
100
AcDbEntity
  8
标注
 62
     3
100
AcDbTrace
 10
1404.646511865209
 20
144.7331700113956
 30
0.0
 11
1404.861367926254
 21
144.7611220681476
 31
0.0
 12
1404.670083725475
 22
145.3917142229066
 32
0.0
 13
1404.670083725475
 23
145.3917142229066
 33
0.0
  0
SOLID
  5
9657
330
9558
100
AcDbEntity
  8
标注
 62
     3
100
AcDbTrace
 10
1408.389463336205
 20
143.2997370999997
 30
0.0
 11
1408.521624425071
 21
143.1280458333783
 31
0.0
 12
1408.970617680502
 22
143.6103747332884
 32
0.0
 13
1408.970617680502
 23
143.6103747332884
 33
0.0
  0
MTEXT
  5
9658
330
9558
100
AcDbEntity
  8
标注
 62
     3
100
AcDbMText
 10
1406.225224206066
 20
143.0642820178995
 30
0.0
 40
0.65
 41
0.0
 71
     5
 72
     1
  1
\A1;135\U+00B0
 11
0.9238795325112866
 21
-0.3826834323650901
 31
0.0
 73
     1
 44
1.0
1001
ACAD
1000
MTEXTBEGIN
1070
    73
1070
     1
1070
    44
1040
1.0
1070
    74
1070
     0
1000
MTEXTEND
  0
POINT
  5
9659
330
9558
100
AcDbEntity
  8
DEFPOINTS
 62
     0
100
AcDbPoint
 10
1405.407938701266
 20
143.6103747332883
 30
0.0
  0
POINT
  5
965A
330
9558
100
AcDbEntity
  8
DEFPOINTS
 62
     0
100
AcDbPoint
 10
1394.108286070391
 20
145.3917142229066
 30
0.0
  0
POINT
  5
965B
330
9558
100
AcDbEntity
  8
DEFPOINTS
 62
     0
100
AcDbPoint
 10
1407.304590251138
 20
145.2764021626527
 30
0.0
  0
POINT
  5
965C
330
9558
100
AcDbEntity
  8
DEFPOINTS
 62
     0
100
AcDbPoint
 10
1411.325926130624
 20
141.2550662831665
 30
0.0
  0
POINT
  5
965D
330
9558
100
AcDbEntity
  8
DEFPOINTS
 62
     0
100
AcDbPoint
 10
1407.026202311377
 20
145.3917142229066
 30
0.0
  0
ENDBLK
  5
955A
330
9558
100
AcDbEntity
  8
0
100
AcDbBlockEnd
  0
BLOCK
  5
957B
330
957A
100
AcDbEntity
  8
0
100
AcDbBlockBegin
  2
*D226
 70
     1
 10
0.0
 20
0.0
 30
0.0
  3
*D226
  1

  0
LINE
  5
965E
330
957A
100
AcDbEntity
  8
标注
  6
Continuous
370
    -2
100
AcDbLine
 10
1413.321236190892
 20
169.6519985455035
 30
0.0
 11
1415.153680725573
 21
169.6519985455035
 31
0.0
  0
LINE
  5
965F
330
957A
100
AcDbEntity
  8
标注
  6
Continuous
370
    -2
100
AcDbLine
 10
1413.321236190892
 20
159.6519985455035
 30
0.0
 11
1415.153680725573
 21
159.6519985455035
 31
0.0
  0
LINE
  5
9660
330
957A
100
AcDbEntity
  8
标注
  6
Continuous
370
    -2
100
AcDbLine
 10
1414.833680725574
 20
169.0019985455035
 30
0.0
 11
1414.833680725574
 21
165.5474623927067
 31
0.0
  0
LINE
  5
9661
330
957A
100
AcDbEntity
  8
标注
  6
Continuous
370
    -2
100
AcDbLine
 10
1414.833680725574
 20
160.3019985455035
 30
0.0
 11
1414.833680725574
 21
163.7565346983002
 31
0.0
  0
SOLID
  5
9662
330
957A
100
AcDbEntity
  8
标注
100
AcDbTrace
 10
1414.72534739224
 20
169.0019985455035
 30
0.0
 11
1414.942014058907
 21
169.0019985455035
 31
0.0
 12
1414.833680725574
 22
169.6519985455035
 32
0.0
 13
1414.833680725574
 23
169.6519985455035
 33
0.0
  0
SOLID
  5
9663
330
957A
100
AcDbEntity
  8
标注
100
AcDbTrace
 10
1414.72534739224
 20
160.3019985455035
 30
0.0
 11
1414.942014058907
 21
160.3019985455035
 31
0.0
 12
1414.833680725574
 22
159.6519985455035
 32
0.0
 13
1414.833680725574
 23
159.6519985455035
 33
0.0
  0
MTEXT
  5
9664
330
957A
100
AcDbEntity
  8
标注
100
AcDbMText
 10
1414.833680725574
 20
164.6519985455037
 30
0.0
 40
0.65
 41
0.0
 71
     5
 72
     1
  1
\A1;10"
 11
0.0000000000000001
 21
1.0
 31
0.0
 73
     1
 44
1.0
1001
ACAD
1000
MTEXTBEGIN
1070
    73
1070
     1
1070
    44
1040
1.0
1070
    74
1070
     0
1000
MTEXTEND
  0
POINT
  5
9665
330
957A
100
AcDbEntity
  8
DEFPOINTS
 62
     0
100
AcDbPoint
 10
1412.441236190892
 20
169.6519985455035
 30
0.0
  0
POINT
  5
9666
330
957A
100
AcDbEntity
  8
DEFPOINTS
 62
     0
100
AcDbPoint
 10
1412.441236190892
 20
159.6519985455035
 30
0.0
  0
POINT
  5
9667
330
957A
100
AcDbEntity
  8
DEFPOINTS
 62
     0
100
AcDbPoint
 10
1414.833680725574
 20
159.6519985455035
 30
0.0
  0
ENDBLK
  5
957C
330
957A
100
AcDbEntity
  8
0
100
AcDbBlockEnd
  0
BLOCK
  5
95C3
330
95C2
100
AcDbEntity
  8
0
100
AcDbBlockBegin
  2
*D227
 70
     1
 10
0.0
 20
0.0
 30
0.0
  3
*D227
  1

  0
LINE
  5
9668
330
95C2
100
AcDbEntity
  8
标注
  6
Continuous
370
    -2
100
AcDbLine
 10
1389.465118809638
 20
128.1952457093223
 30
0.0
 11
1389.077851972613
 21
127.6732070163695
 31
0.0
  0
MTEXT
  5
9669
330
95C2
100
AcDbEntity
  8
标注
100
AcDbMText
 10
1390.557979711307
 20
130.2476460664622
 30
0.0
 40
0.65
 41
0.0
 71
     5
 72
     1
  1
\A1;6-R3/8"
 11
0.5957951338861798
 21
0.8031364506966108
 31
0.0
 73
     1
 44
1.0
1001
ACAD
1000
MTEXTBEGIN
1070
    73
1070
     1
1070
    44
1040
1.0
1070
    74
1070
     0
1000
MTEXTEND
  0
LINE
  5
966A
330
95C2
100
AcDbEntity
  8
标注
  6
Continuous
370
    -2
100
AcDbLine
 10
1390.086950190875
 20
129.0334792229141
 30
0.0
 11
1389.852385646664
 21
128.7172844022751
 31
0.0
  0
SOLID
  5
966B
330
95C2
100
AcDbEntity
  8
标注
100
AcDbTrace
 10
1389.378112360813
 20
128.2597901821601
 30
0.0
 11
1389.552125258464
 21
128.1307012364847
 31
0.0
 12
1389.852385646664
 22
128.7172844022751
 32
0.0
 13
1389.852385646664
 23
128.7172844022751
 33
0.0
  0
POINT
  5
966C
330
95C2
100
AcDbEntity
  8
DEFPOINTS
 62
     0
100
AcDbPoint
 10
1389.852385646664
 20
128.7172844022751
 30
0.0
  0
POINT
  5
966D
330
95C2
100
AcDbEntity
  8
DEFPOINTS
 62
     0
100
AcDbPoint
 10
1390.086950190875
 20
129.0334792229141
 30
0.0
  0
ENDBLK
  5
95C4
330
95C2
100
AcDbEntity
  8
0
100
AcDbBlockEnd
  0
BLOCK
  5
95CD
330
95CC
100
AcDbEntity
  8
0
100
AcDbBlockBegin
  2
*D228
 70
     1
 10
0.0
 20
0.0
 30
0.0
  3
*D228
  1

  0
LINE
  5
966E
330
95CC
100
AcDbEntity
  8
标注
  6
Continuous
370
    -2
100
AcDbLine
 10
1389.290149753783
 20
159.4342019857706
 30
0.0
 11
1388.79391493141
 21
159.0143794029277
 31
0.0
  0
MTEXT
  5
966F
330
95CC
100
AcDbEntity
  8
标注
100
AcDbMText
 10
1390.719548958565
 20
161.126407495179
 30
0.0
 40
0.65
 41
0.0
 71
     5
 72
     1
  1
\A1;R3/8"
 11
0.7634381882653014
 21
0.6458808966815743
 31
0.0
 73
     1
 44
1.0
1001
ACAD
1000
MTEXTBEGIN
1070
    73
1070
     1
1070
    44
1040
1.0
1070
    74
1070
     0
1000
MTEXTEND
  0
LINE
  5
9670
330
95CC
100
AcDbEntity
  8
标注
  6
Continuous
370
    -2
100
AcDbLine
 10
1390.086950190876
 20
160.1083078776374
 30
0.0
 11
1389.786384576155
 21
159.8540245686137
 31
0.0
  0
SOLID
  5
9671
330
95CC
100
AcDbEntity
  8
标注
100
AcDbTrace
 10
1389.220179323309
 20
159.5169077894993
 30
0.0
 11
1389.360120184256
 21
159.3514961820418
 31
0.0
 12
1389.786384576155
 22
159.8540245686137
 32
0.0
 13
1389.786384576155
 23
159.8540245686137
 33
0.0
  0
POINT
  5
9672
330
95CC
100
AcDbEntity
  8
DEFPOINTS
 62
     0
100
AcDbPoint
 10
1389.786384576155
 20
159.8540245686137
 30
0.0
  0
POINT
  5
9673
330
95CC
100
AcDbEntity
  8
DEFPOINTS
 62
     0
100
AcDbPoint
 10
1390.086950190876
 20
160.1083078776374
 30
0.0
  0
ENDBLK
  5
95CE
330
95CC
100
AcDbEntity
  8
0
100
AcDbBlockEnd
  0
ENDSEC
  0
SECTION
  2
ENTITIES
  0
LINE
  5
9411
330
5F6E
100
AcDbEntity
  8
0
100
AcDbLine
 10
1390.086950190876
 20
129.0334792229142
 30
0.0
 11
1398.950119585222
 21
137.8740425256866
 31
0.0
  0
LINE
  5
9412
330
5F6E
100
AcDbEntity
  8
0
100
AcDbLine
 10
1388.693252190876
 20
169.6519985455035
 30
0.0
 11
1389.575140190879
 21
169.6519985455035
 31
0.0
  0
LINE
  5
9413
330
5F6E
100
AcDbEntity
  8
虚线
 48
0.3
100
AcDbLine
 10
1389.69325019089
 20
169.5338885454931
 30
0.0
 11
1389.69325019089
 21
160.1083078776374
 31
0.0
  0
LINE
  5
9414
330
5F6E
100
AcDbEntity
  8
虚线
 48
0.3
100
AcDbLine
 10
1411.441238190878
 20
160.1083078776374
 30
0.0
 11
1411.441238190878
 21
169.5338885454931
 31
0.0
  0
LINE
  5
9415
330
5F6E
100
AcDbEntity
  8
0
100
AcDbLine
 10
1411.559348190888
 20
169.6519985455035
 30
0.0
 11
1412.441236190892
 21
169.6519985455035
 31
0.0
  0
LINE
  5
9416
330
5F6E
100
AcDbEntity
  8
0
100
AcDbLine
 10
1389.575140190879
 20
169.6519985455035
 30
0.0
 11
1411.559348190888
 21
169.6519985455035
 31
0.0
  0
LINE
  5
9417
330
5F6E
100
AcDbEntity
  8
0
100
AcDbLine
 10
1402.184368796546
 20
137.8740425256866
 30
0.0
 11
1411.047538190892
 21
129.0334792229142
 31
0.0
  0
LINE
  5
9418
330
5F6E
100
AcDbEntity
  8
0
100
AcDbLine
 10
1388.693252190876
 20
128.4888057853706
 30
0.0
 11
1388.693252190876
 21
141.390891077349
 31
0.0
  0
LINE
  5
9419
330
5F6E
100
AcDbEntity
  8
0
100
AcDbLine
 10
1389.542276753332
 20
127.6397812229144
 30
0.0
 11
1411.592211628436
 21
127.6397812229144
 31
0.0
  0
LINE
  5
941A
330
5F6E
100
AcDbEntity
  8
0
100
AcDbLine
 10
1393.694073336447
 20
146.3917122229205
 30
0.0
 11
1407.440423106907
 21
146.3917122229205
 31
0.0
  0
ARC
  5
941B
330
5F6E
100
AcDbEntity
  8
0
100
AcDbCircle
 10
1393.694073336447
 20
145.9980122229054
 30
0.0
 40
0.3937
100
AcDbArc
 50
90.0
 51
135.0000000153239
  0
LINE
  5
941C
330
5F6E
100
AcDbEntity
  8
0
100
AcDbLine
 10
1412.441236190892
 20
141.390891077349
 30
0.0
 11
1412.441236190892
 21
128.4888057853706
 31
0.0
  0
ARC
  5
941D
330
5F6E
100
AcDbEntity
  8
0
100
AcDbCircle
 10
1412.047536190877
 20
141.390891077349
 30
0.0
 40
0.3937
100
AcDbArc
 50
0.0
 51
44.99999998467611
  0
LINE
  5
941E
330
5F6E
100
AcDbEntity
  8
0
100
AcDbLine
 10
1390.086950190876
 20
128.6397792228991
 30
0.0
 11
1411.047538190892
 21
128.6397792228991
 31
0.0
  0
ARC
  5
941F
330
5F6E
100
AcDbEntity
  8
0
100
AcDbCircle
 10
1390.086950190876
 20
129.0334792229142
 30
0.0
 40
0.3937
100
AcDbArc
 50
180.0
 51
270.0
  0
LINE
  5
9420
330
5F6E
100
AcDbEntity
  8
0
100
AcDbLine
 10
1411.441238190878
 20
140.9766783434053
 30
0.0
 11
1411.441238190878
 21
129.0334792229142
 31
0.0
  0
ARC
  5
9421
330
5F6E
100
AcDbEntity
  8
0
100
AcDbCircle
 10
1411.047538190892
 20
129.0334792229142
 30
0.0
 40
0.3937
100
AcDbArc
 50
270.0
 51
0.0
  0
LINE
  5
9422
330
5F6E
100
AcDbEntity
  8
0
100
AcDbLine
 10
1389.69325019089
 20
129.0334792229142
 30
0.0
 11
1389.69325019089
 21
140.9766783434053
 31
0.0
  0
ARC
  5
9423
330
5F6E
100
AcDbEntity
  8
0
100
AcDbCircle
 10
1390.086950190876
 20
140.9766783434053
 30
0.0
 40
0.3937
100
AcDbArc
 50
135.0000000153239
 51
180.0
  0
LINE
  5
9424
330
5F6E
100
AcDbEntity
  8
0
100
AcDbLine
 10
1394.108286070391
 20
145.3917142229066
 30
0.0
 11
1407.026202311376
 21
145.3917142229066
 31
0.0
  0
ARC
  5
9425
330
5F6E
100
AcDbEntity
  8
0
100
AcDbCircle
 10
1394.108286070391
 20
144.9980142229207
 30
0.0
 40
0.3937
100
AcDbArc
 50
90.0
 51
135.0000000153239
  0
CIRCLE
  5
9426
330
5F6E
100
AcDbEntity
  8
0
100
AcDbCircle
 10
1400.567244190884
 20
139.4862142229132
 30
0.0
 40
2.165350000000524
  0
CIRCLE
  5
9427
330
5F6E
100
AcDbEntity
  8
0
100
AcDbCircle
 10
1400.567244190884
 20
139.4862142229132
 30
0.0
 40
1.791335000000303
  0
CIRCLE
  5
9428
330
5F6E
100
AcDbEntity
  8
0
100
AcDbCircle
 10
1400.567244190884
 20
139.4862142229132
 30
0.0
 40
2.28346
  0
LINE
  5
9429
330
5F6E
100
AcDbEntity
  8
0
100
AcDbLine
 10
1411.500293190897
 20
160.1083158335769
 30
0.0
 11
1411.500293190897
 21
169.5338885454931
 31
0.0
  0
LINE
  5
942A
330
5F6E
100
AcDbEntity
  8
0
100
AcDbLine
 10
1411.559348190888
 20
169.5929435454837
 30
0.0
 11
1412.441236190892
 21
169.5929435454837
 31
0.0
  0
LINE
  5
942B
330
5F6E
100
AcDbEntity
  8
0
100
AcDbLine
 10
1388.693252190876
 20
169.5929435454837
 30
0.0
 11
1389.575140190879
 21
169.5929435454837
 31
0.0
  0
LINE
  5
942C
330
5F6E
100
AcDbEntity
  8
0
100
AcDbLine
 10
1389.634195190899
 20
169.5338885454931
 30
0.0
 11
1389.634195190899
 21
160.1083158335769
 31
0.0
  0
LINE
  5
942D
330
5F6E
100
AcDbEntity
  8
0
100
AcDbLine
 10
1388.693252190876
 20
169.6519985455035
 30
0.0
 11
1388.693252190876
 21
169.5929435454837
 31
0.0
  0
LINE
  5
942E
330
5F6E
100
AcDbEntity
  8
0
100
AcDbLine
 10
1412.441236190892
 20
169.6519985455035
 30
0.0
 11
1412.441236190892
 21
169.5929435454837
 31
0.0
  0
ARC
  5
942F
330
5F6E
100
AcDbEntity
  8
虚线
 48
0.3
100
AcDbCircle
 10
1389.575140190879
 20
169.5338885454931
 30
0.0
 40
0.11811
100
AcDbArc
 50
0.0
 51
90.0
  0
ARC
  5
9430
330
5F6E
100
AcDbEntity
  8
虚线
 48
0.3
100
AcDbCircle
 10
1411.559348190888
 20
169.5338885454931
 30
0.0
 40
0.11811
100
AcDbArc
 50
90.0
 51
180.0
  0
ARC
  5
9431
330
5F6E
100
AcDbEntity
  8
0
100
AcDbCircle
 10
1411.559348190888
 20
169.5338885454931
 30
0.0
 40
0.059055
100
AcDbArc
 50
90.0
 51
180.0
  0
ARC
  5
9432
330
5F6E
100
AcDbEntity
  8
0
100
AcDbCircle
 10
1389.575140190879
 20
169.5338885454931
 30
0.0
 40
0.059055
100
AcDbArc
 50
0.0
 51
90.0
  0
LINE
  5
9433
330
5F6E
100
AcDbEntity
  8
0
100
AcDbLine
 10
1389.808562251144
 20
141.2550662831664
 30
0.0
 11
1393.82989813063
 21
145.2764021626527
 31
0.0
  0
LINE
  5
9434
330
5F6E
100
AcDbEntity
  8
0
100
AcDbLine
 10
1407.304590251138
 20
145.2764021626527
 30
0.0
 11
1411.325926130624
 21
141.2550662831664
 31
0.0
  0
ARC
  5
9435
330
5F6E
100
AcDbEntity
  8
0
100
AcDbCircle
 10
1407.026202311376
 20
144.9980142229207
 30
0.0
 40
0.3937
100
AcDbArc
 50
44.99999998467611
 51
90.0
  0
ARC
  5
9436
330
5F6E
100
AcDbEntity
  8
0
100
AcDbCircle
 10
1411.047538190892
 20
140.9766783434053
 30
0.0
 40
0.3937
100
AcDbArc
 50
0.0
 51
44.99999998467611
  0
LINE
  5
9437
330
5F6E
100
AcDbEntity
  8
0
100
AcDbLine
 10
1398.81310022717
 20
140.9481200085748
 30
0.0
 11
1394.108286070391
 21
144.9980142229207
 31
0.0
  0
LINE
  5
9438
330
5F6E
100
AcDbEntity
  8
0
100
AcDbLine
 10
1402.321388154597
 20
140.9481200085748
 30
0.0
 11
1407.026202311376
 21
144.9980142229207
 31
0.0
  0
LINE
  5
9439
330
5F6E
100
AcDbEntity
  8
0
100
AcDbLine
 10
1407.718802984994
 20
146.2764001627539
 30
0.0
 11
1412.325924130638
 21
141.6692790171101
 31
0.0
  0
LINE
  5
943A
330
5F6E
100
AcDbEntity
  8
0
100
AcDbLine
 10
1388.80856425113
 20
141.6692790171101
 30
0.0
 11
1393.415685396686
 21
146.2764001626666
 31
0.0
  0
ARC
  5
943B
330
5F6E
100
AcDbEntity
  8
0
100
AcDbCircle
 10
1389.086952190891
 20
141.390891077349
 30
0.0
 40
0.3937
100
AcDbArc
 50
135.0000000153239
 51
180.0
  0
POINT
  5
943C
330
5F6E
100
AcDbEntity
  8
标注
 48
5.0
100
AcDbPoint
 10
1407.189278190884
 20
145.3917142229066
 30
0.0
  0
POINT
  5
943D
330
5F6E
100
AcDbEntity
  8
标注
 48
5.0
100
AcDbPoint
 10
1411.441238190878
 20
141.1397542229125
 30
0.0
  0
POINT
  5
943E
330
5F6E
100
AcDbEntity
  8
标注
 48
5.0
100
AcDbPoint
 10
1393.945210190884
 20
145.3917142229066
 30
0.0
  0
POINT
  5
943F
330
5F6E
100
AcDbEntity
  8
标注
 48
5.0
100
AcDbPoint
 10
1389.69325019089
 20
141.1397542229125
 30
0.0
 50
180.0
  0
ARC
  5
9440
330
5F6E
100
AcDbEntity
  8
虚线
 48
0.3
100
AcDbCircle
 10
1390.086950190876
 20
160.1083078776374
 30
0.0
 40
0.3937
100
AcDbArc
 50
180.0
 51
268.8525960597513
  0
LINE
  5
9441
330
5F6E
100
AcDbEntity
  8
虚线
 48
0.3
100
AcDbLine
 10
1390.079066490857
 20
159.7146868196961
 30
0.0
 11
1398.210788196492
 21
159.5893533164873
 31
0.0
  0
LINE
  5
9442
330
5F6E
100
AcDbEntity
  8
虚线
 48
0.3
100
AcDbLine
 10
1402.923699663356
 20
159.5893533164873
 30
0.0
 11
1411.05542189091
 21
159.7146868196961
 31
0.0
  0
LINE
  5
9443
330
5F6E
100
AcDbEntity
  8
虚线
 48
0.3
100
AcDbLine
 10
1398.283784190878
 20
159.5893533164873
 30
0.0
 11
1402.85070419089
 21
159.5893533164873
 31
0.0
  0
LINE
  5
9444
330
5F6E
100
AcDbEntity
  8
虚线
 48
0.3
100
AcDbLine
 10
1402.923699663356
 20
159.5893533164873
 30
0.0
 11
1398.210788196492
 21
159.5893533164873
 31
0.0
  0
ARC
  5
9445
330
5F6E
100
AcDbEntity
  8
虚线
 48
0.3
100
AcDbCircle
 10
1398.210788196492
 20
159.4712433164769
 30
0.0
 40
0.11811
100
AcDbArc
 50
26.56505108236821
 51
90.0
  0
ARC
  5
9446
330
5F6E
100
AcDbEntity
  8
虚线
 48
0.3
100
AcDbCircle
 10
1402.923700185275
 20
159.4712433164769
 30
0.0
 40
0.11811
100
AcDbArc
 50
90.0
 51
153.4349486715374
  0
ARC
  5
9447
330
5F6E
100
AcDbEntity
  8
虚线
 48
0.3
100
AcDbCircle
 10
1398.438392188096
 20
159.4121883164863
 30
0.0
 40
0.059055
100
AcDbArc
 50
206.5650516506218
 51
269.9999999583118
  0
ARC
  5
9448
330
5F6E
100
AcDbEntity
  8
虚线
 48
0.3
100
AcDbCircle
 10
1402.696096193672
 20
159.4121883164863
 30
0.0
 40
0.059055
100
AcDbArc
 50
270.0000000416882
 51
333.4349477714293
  0
LINE
  5
9449
330
5F6E
100
AcDbEntity
  8
虚线
 48
0.3
100
AcDbLine
 10
1402.748916591446
 20
159.3857781176285
 30
0.0
 11
1402.818059389757
 21
159.5240637142798
 31
0.0
  0
LINE
  5
944A
330
5F6E
100
AcDbEntity
  8
虚线
 48
0.3
100
AcDbLine
 10
1398.438392188096
 20
159.3531333164957
 30
0.0
 11
1398.795594190874
 21
159.3531333164957
 31
0.0
  0
LINE
  5
944B
330
5F6E
100
AcDbEntity
  8
虚线
 48
0.3
100
AcDbLine
 10
1402.338894190893
 20
159.2940783164759
 30
0.0
 11
1402.338894190893
 21
159.3531333164957
 31
0.0
  0
LINE
  5
944C
330
5F6E
100
AcDbEntity
  8
虚线
 48
0.3
100
AcDbLine
 10
1398.385571790322
 20
159.3857781176285
 30
0.0
 11
1398.316428992011
 21
159.5240637142798
 31
0.0
  0
LINE
  5
944D
330
5F6E
100
AcDbEntity
  8
虚线
 48
0.3
100
AcDbLine
 10
1398.795594190874
 20
159.2940783164759
 30
0.0
 11
1398.795594190874
 21
159.3531333164957
 31
0.0
  0
LINE
  5
944E
330
5F6E
100
AcDbEntity
  8
虚线
 48
0.3
100
AcDbLine
 10
1402.338894190893
 20
159.3531333164957
 30
0.0
 11
1402.696096193672
 21
159.3531333164957
 31
0.0
  0
LINE
  5
944F
330
5F6E
100
AcDbEntity
  8
虚线
 48
0.3
100
AcDbLine
 10
1398.795594190874
 20
159.3531333164957
 30
0.0
 11
1402.338894190893
 21
159.3531333164957
 31
0.0
  0
LINE
  5
9450
330
5F6E
100
AcDbEntity
  8
0
100
AcDbLine
 10
1398.332751392577
 20
159.3593679187416
 30
0.0
 11
1398.263608594237
 21
159.4976535153929
 31
0.0
  0
ARC
  5
9451
330
5F6E
100
AcDbEntity
  8
0
100
AcDbCircle
 10
1398.210788196492
 20
159.4712433164769
 30
0.0
 40
0.059055
100
AcDbArc
 50
26.56505108236821
 51
90.0
  0
LINE
  5
9452
330
5F6E
100
AcDbEntity
  8
0
100
AcDbLine
 10
1390.077884216925
 20
159.6556516112706
 30
0.0
 11
1398.210788196492
 21
159.5302983164966
 31
0.0
  0
ARC
  5
9453
330
5F6E
100
AcDbEntity
  8
0
100
AcDbCircle
 10
1390.086950190876
 20
160.1083158335769
 30
0.0
 40
0.452755
100
AcDbArc
 50
180.0
 51
268.8526316452221
  0
ARC
  5
9454
330
5F6E
100
AcDbEntity
  8
0
100
AcDbCircle
 10
1398.438392188096
 20
159.4121883164863
 30
0.0
 40
0.11811
100
AcDbArc
 50
206.5650516506218
 51
269.9999999583118
  0
LINE
  5
9455
330
5F6E
100
AcDbEntity
  8
0
100
AcDbLine
 10
1398.438392188096
 20
159.2940783164759
 30
0.0
 11
1398.795594190874
 21
159.2940783164759
 31
0.0
  0
LINE
  5
9456
330
5F6E
100
AcDbEntity
  8
0
100
AcDbLine
 10
1398.795594190874
 20
159.2940783164759
 30
0.0
 11
1402.338894190893
 21
159.2940783164759
 31
0.0
  0
LINE
  5
9457
330
5F6E
100
AcDbEntity
  8
0
100
AcDbLine
 10
1402.338894190893
 20
159.2940783164759
 30
0.0
 11
1402.696096193672
 21
159.2940783164759
 31
0.0
  0
ARC
  5
9458
330
5F6E
100
AcDbEntity
  8
0
100
AcDbCircle
 10
1402.696096193672
 20
159.4121883164863
 30
0.0
 40
0.11811
100
AcDbArc
 50
270.0000000416882
 51
333.4349477714293
  0
LINE
  5
9459
330
5F6E
100
AcDbEntity
  8
0
100
AcDbLine
 10
1402.80173698919
 20
159.3593679187416
 30
0.0
 11
1402.870879787531
 21
159.4976535153929
 31
0.0
  0
ARC
  5
945A
330
5F6E
100
AcDbEntity
  8
0
100
AcDbCircle
 10
1402.923700185275
 20
159.4712433164769
 30
0.0
 40
0.059055
100
AcDbArc
 50
90.0
 51
153.4349486715374
  0
LINE
  5
945B
330
5F6E
100
AcDbEntity
  8
0
100
AcDbLine
 10
1402.923699663356
 20
159.5302983164966
 30
0.0
 11
1411.056604164843
 21
159.6556516112997
 31
0.0
  0
ARC
  5
945C
330
5F6E
100
AcDbEntity
  8
虚线
 48
0.3
100
AcDbCircle
 10
1411.047538190892
 20
160.1083078776374
 30
0.0
 40
0.3937
100
AcDbArc
 50
271.1474039402487
 51
0.0
  0
ARC
  5
945D
330
5F6E
100
AcDbEntity
  8
0
100
AcDbCircle
 10
1411.047538190892
 20
160.1083158335769
 30
0.0
 40
0.452755
100
AcDbArc
 50
271.1473683547779
 51
0.0
  0
ARC
  5
945E
330
5F6E
100
AcDbEntity
  8
0
 48
5.0
100
AcDbCircle
 10
1411.592211628436
 20
127.7185212229116
 30
0.0
 40
0.07874
100
AcDbArc
 50
270.0
 51
315.0000000153239
  0
ARC
  5
945F
330
5F6E
100
AcDbEntity
  8
0
100
AcDbCircle
 10
1412.362496190894
 20
128.4888057853706
 30
0.0
 40
0.07874
100
AcDbArc
 50
315.0000000153239
 51
0.0
  0
LINE
  5
9460
330
5F6E
100
AcDbEntity
  8
0
 48
5.0
100
AcDbLine
 10
1411.647889216388
 20
127.6628436349593
 30
0.0
 11
1412.418173778847
 21
128.4331281974183
 31
0.0
  0
POINT
  5
9461
330
5F6E
100
AcDbEntity
  8
标注
 48
5.0
100
AcDbPoint
 10
1412.441236190892
 20
128.4561906094633
 30
0.0
 50
180.0
  0
POINT
  5
9462
330
5F6E
100
AcDbEntity
  8
标注
 48
5.0
100
AcDbPoint
 10
1411.624826804343
 20
127.6397812229144
 30
0.0
 50
180.0
  0
ARC
  5
9463
330
5F6E
100
AcDbEntity
  8
0
 48
5.0
100
AcDbCircle
 10
1389.542276753332
 20
127.7185212229116
 30
0.0
 40
0.07874
100
AcDbArc
 50
224.9999999846761
 51
270.0
  0
ARC
  5
9464
330
5F6E
100
AcDbEntity
  8
0
100
AcDbCircle
 10
1388.771992190873
 20
128.4888057853706
 30
0.0
 40
0.07874
100
AcDbArc
 50
180.0
 51
224.9999999846761
  0
LINE
  5
9465
330
5F6E
100
AcDbEntity
  8
0
 48
5.0
100
AcDbLine
 10
1389.48659916538
 20
127.6628436349593
 30
0.0
 11
1388.716314602921
 21
128.4331281974183
 31
0.0
  0
POINT
  5
9466
330
5F6E
100
AcDbEntity
  8
标注
 48
5.0
100
AcDbPoint
 10
1388.693252190876
 20
128.4561906094633
 30
0.0
 50
0.000000000000007
  0
POINT
  5
9467
330
5F6E
100
AcDbEntity
  8
标注
 48
5.0
100
AcDbPoint
 10
1389.509661577425
 20
127.6397812229144
 30
0.0
 50
0.000000000000007
  0
ARC
  5
9468
330
5F6E
100
AcDbEntity
  8
0
100
AcDbCircle
 10
1407.440415045233
 20
145.9980122229928
 30
0.0
 40
0.3937
100
AcDbArc
 50
44.99999998467611
 51
90.0
  0
POINT
  5
9469
330
5F6E
100
AcDbEntity
  8
标注
 48
5.0
100
AcDbPoint
 10
1407.60349092474
 20
146.3917122230078
 30
0.0
  0
POINT
  5
946A
330
5F6E
100
AcDbEntity
  8
标注
 48
5.0
100
AcDbPoint
 10
1407.603490924828
 20
146.3917122229205
 30
0.0
  0
POINT
  5
946B
330
5F6E
100
AcDbEntity
  8
标注
 48
5.0
100
AcDbPoint
 10
1412.441236190892
 20
141.5539669568562
 30
0.0
  0
POINT
  5
946C
330
5F6E
100
AcDbEntity
  8
标注
 48
5.0
100
AcDbPoint
 10
1393.53099745694
 20
146.3917122229205
 30
0.0
  0
POINT
  5
946D
330
5F6E
100
AcDbEntity
  8
标注
 48
5.0
100
AcDbPoint
 10
1388.693252190876
 20
141.5539669568562
 30
0.0
  0
LINE
  5
946E
330
5F6E
100
AcDbEntity
  8
中心线
  6
Continuous
 62
     1
100
AcDbLine
 10
1390.086950190876
 20
93.44287308188938
 30
0.0
 11
1411.047538190892
 21
93.44287308188938
 31
0.0
  0
ARC
  5
946F
330
5F6E
100
AcDbEntity
  8
中心线
  6
Continuous
 62
     1
100
AcDbCircle
 10
1411.047538190892
 20
93.91531308190167
 30
0.0
 40
0.4724400000000001
100
AcDbArc
 50
270.0
 51
0.0
  0
LINE
  5
9470
330
5F6E
100
AcDbEntity
  8
中心线
  6
Continuous
 62
     1
100
AcDbLine
 10
1411.519978190875
 20
106.0542032578072
 30
0.0
 11
1411.519978190875
 21
105.987795347259
 31
0.0
  0
LINE
  5
9471
330
5F6E
100
AcDbEntity
  8
中心线
  6
Continuous
 62
     1
100
AcDbLine
 10
1411.519978190875
 20
105.8585122023927
 30
0.0
 11
1411.519978190875
 21
93.91531308190167
 31
0.0
  0
ARC
  5
9472
330
5F6E
100
AcDbEntity
  8
中心线
  6
Continuous
 62
     1
100
AcDbCircle
 10
1411.047538190892
 20
105.8585122023927
 30
0.0
 40
0.4724400000000001
100
AcDbArc
 50
0.0
 51
44.99999998467611
  0
LINE
  5
9473
330
5F6E
100
AcDbEntity
  8
中心线
  6
Continuous
 62
     1
100
AcDbLine
 10
1389.614510190892
 20
93.91531308190167
 30
0.0
 11
1389.614510190892
 21
106.0542032578072
 31
0.0
  0
ARC
  5
9474
330
5F6E
100
AcDbEntity
  8
中心线
  6
Continuous
 62
     1
100
AcDbCircle
 10
1390.086950190876
 20
93.91531308190167
 30
0.0
 40
0.4724400000000001
100
AcDbArc
 50
180.0
 51
270.0
  0
LINE
  5
9475
330
5F6E
100
AcDbEntity
  8
中心线
  6
Continuous
 62
     1
100
AcDbLine
 10
1393.912595014977
 20
110.3522880818913
 30
0.0
 11
1407.026202311376
 21
110.3522880818913
 31
0.0
  0
LINE
  5
9476
330
5F6E
100
AcDbEntity
  8
中心线
  6
Continuous
 62
     1
100
AcDbLine
 10
1407.127268003083
 20
110.3522880818913
 30
0.0
 11
1407.221893366791
 21
110.3522880818913
 31
0.0
  0
LINE
  5
9477
330
5F6E
100
AcDbEntity
  8
中心线
  6
Continuous
 62
     1
100
AcDbLine
 10
1407.221893366791
 20
110.3522880818913
 30
0.0
 11
1407.256094976518
 21
110.3180864721638
 31
0.0
  0
LINE
  5
9478
330
5F6E
100
AcDbEntity
  8
中心线
  6
Continuous
 62
     1
100
AcDbLine
 10
1407.36026783909
 20
110.2139136095924
 30
0.0
 11
1411.382061272468
 21
106.1921201762146
 31
0.0
  0
LINE
  5
9479
330
5F6E
100
AcDbEntity
  8
中心线
  6
Continuous
 62
     1
100
AcDbLine
 10
1411.46149930147
 20
106.112682147212
 30
0.0
 11
1411.519978190875
 21
106.0542032578072
 31
0.0
  0
ARC
  5
947A
330
5F6E
100
AcDbEntity
  8
中心线
  6
Continuous
 62
     1
100
AcDbCircle
 10
1407.026202311376
 20
109.8798480819081
 30
0.0
 40
0.4724400000000001
100
AcDbArc
 50
44.99999998467611
 51
90.0
  0
LINE
  5
947B
330
5F6E
100
AcDbEntity
  8
中心线
  6
Continuous
 62
     1
100
AcDbLine
 10
1389.614510190892
 20
106.0542032578072
 30
0.0
 11
1389.614510190892
 21
105.987795347259
 31
0.0
  0
ARC
  5
947C
330
5F6E
100
AcDbEntity
  8
中心线
  6
Continuous
 62
     1
100
AcDbCircle
 10
1390.086950190876
 20
105.8585122023927
 30
0.0
 40
0.4724400000000001
100
AcDbArc
 50
135.0000000153238
 51
180.0
  0
LINE
  5
947D
330
5F6E
100
AcDbEntity
  8
中心线
  6
Continuous
 62
     1
100
AcDbLine
 10
1394.007220378685
 20
110.3522880818913
 30
0.0
 11
1393.912595014977
 21
110.3522880818913
 31
0.0
  0
LINE
  5
947E
330
5F6E
100
AcDbEntity
  8
中心线
  6
Continuous
 62
     1
100
AcDbLine
 10
1393.912595014977
 20
110.3522880818913
 30
0.0
 11
1393.878393405249
 21
110.3180864721638
 31
0.0
  0
LINE
  5
947F
330
5F6E
100
AcDbEntity
  8
中心线
  6
Continuous
 62
     1
100
AcDbLine
 10
1393.774220542678
 20
110.2139136095924
 30
0.0
 11
1389.7524271093
 21
106.1921201762146
 31
0.0
  0
LINE
  5
9480
330
5F6E
100
AcDbEntity
  8
中心线
  6
Continuous
 62
     1
100
AcDbLine
 10
1389.672989080297
 20
106.112682147212
 30
0.0
 11
1389.614510190892
 21
106.0542032578072
 31
0.0
  0
ARC
  5
9481
330
5F6E
100
AcDbEntity
  8
中心线
  6
Continuous
 62
     1
100
AcDbCircle
 10
1394.108286070391
 20
109.8798480819081
 30
0.0
 40
0.4724400000000001
100
AcDbArc
 50
90.0
 51
135.0000000153238
  0
LINE
  5
9482
330
5F6E
100
AcDbEntity
  8
0
100
AcDbLine
 10
1411.559348190888
 20
169.5929435454837
 30
0.0
 11
1389.575140190879
 21
169.5929435454837
 31
0.0
  0
LINE
  5
9483
330
5F6E
100
AcDbEntity
  8
0
100
AcDbLine
 10
1398.210788196492
 20
159.5302983164966
 30
0.0
 11
1402.923700185275
 21
159.5302983164966
 31
0.0
  0
TEXT
  5
948A
330
5F6E
100
AcDbEntity
  8
标注
100
AcDbText
 10
1397.711652007145
 20
155.6653873228367
 30
0.0
 40
0.7874015748031497
  1
FRONT VIEW
100
AcDbText
  0
TEXT
  5
948B
330
5F6E
100
AcDbEntity
  8
标注
100
AcDbText
 10
1396.038410531146
 20
121.1026678654766
 30
0.0
 40
0.7874015748031497
  1
OVERHEAD VIEW
100
AcDbText
  0
TEXT
  5
948C
330
5F6E
100
AcDbEntity
  8
标注
100
AcDbText
 10
1401.878011825443
 20
85.76123188537684
 30
0.0
 40
0.7874015748031497
  1
 CUTOUT
100
AcDbText
  0
LINE
  5
948D
330
5F6E
100
AcDbEntity
  8
中心线
  6
Continuous
 62
     1
100
AcDbLine
 10
1394.212605744877
 20
86.01443335268163
 30
0.0
 11
1400.42941074896
 21
86.01443335268163
 31
0.0
  0
DIMENSION
  5
949B
330
5F6E
100
AcDbEntity
  8
标注
100
AcDbDimension
  2
*D214
 10
1411.519978190892
 20
91.63781914750279
 30
0.0
 11
1400.567244190892
 21
91.63781914750279
 31
0.0
 70
    32
 71
     5
 42
21.90546799999947
  3
副本STANDARD
100
AcDbAlignedDimension
 13
1389.614510190892
 23
93.91531308190167
 33
0.0
 14
1411.519978190892
 24
93.91531308190167
 34
0.0
100
AcDbRotatedDimension
1001
ACAD
1000
DSTYLE
1002
{
1070
    49
1040
1.25
1070
    50
1040
1.570796326794896
1070
   345
1005
5F5E
1070
   346
1005
5F5E
1070
   347
1005
5F5E
1002
}
  0
DIMENSION
  5
94A9
330
5F6E
100
AcDbEntity
  8
标注
100
AcDbDimension
  2
*D215
 10
1415.372351349558
 20
110.3522880818913
 30
0.0
 11
1415.372351349558
 21
101.8975805818905
 31
0.0
 70
    32
 71
     5
 42
16.9094150000019
  3
副本STANDARD
100
AcDbAlignedDimension
 13
1411.047538190892
 23
93.44287308188938
 33
0.0
 14
1407.026202311376
 24
110.3522880818913
 34
0.0
 50
90.0
100
AcDbRotatedDimension
1001
ACAD
1000
DSTYLE
1002
{
1070
    49
1040
1.25
1070
    50
1040
1.570796326794896
1070
   345
1005
5F5E
1070
   346
1005
5F5E
1070
   347
1005
5F5E
1002
}
  0
DIMENSION
  5
94B7
330
5F6E
100
AcDbEntity
  8
标注
100
AcDbDimension
  2
*D216
 10
1407.221893366791
 20
112.2199730151361
 30
0.0
 11
1400.567244190884
 21
112.2199730151361
 31
0.0
 70
    32
 71
     5
 42
13.3092983518145
  3
副本STANDARD
100
AcDbAlignedDimension
 13
1393.912595014977
 23
110.3522880818913
 33
0.0
 14
1407.221893366791
 24
110.3522880818913
 34
0.0
100
AcDbRotatedDimension
1001
ACAD
1000
DSTYLE
1002
{
1070
    49
1040
1.25
1070
    50
1040
1.570796326794896
1070
   345
1005
5F5E
1070
   346
1005
5F5E
1070
   347
1005
5F5E
1002
}
  0
DIMENSION
  5
94C5
330
5F6E
100
AcDbEntity
  8
标注
100
AcDbDimension
  2
*D217
 10
1413.271636289388
 20
110.3522880818913
 30
0.0
 11
1413.271636289388
 21
108.2032456698495
 31
0.0
 70
    32
 71
     5
 42
4.298084824084071
  3
副本STANDARD
100
AcDbAlignedDimension
 13
1411.519978190875
 23
106.0542032578072
 33
0.0
 14
1407.221893366791
 24
110.3522880818913
 34
0.0
 50
90.0
100
AcDbRotatedDimension
1001
ACAD
1000
DSTYLE
1002
{
1070
    49
1040
1.25
1070
    50
1040
1.570796326794896
1070
   345
1005
5F5E
1070
   346
1005
5F5E
1070
   347
1005
5F5E
1002
}
  0
DIMENSION
  5
94D5
330
5F6E
100
AcDbEntity
  8
标注
100
AcDbDimension
  2
*D218
 10
1411.382061272468
 20
106.1921201762146
 30
0.0
 11
1406.262542500962
 21
108.0362102105326
 31
0.0
 70
    34
 71
     5
 42
2.356194490192352
  3
STANDARD
100
AcDb2LineAngularDimension
 13
1393.912595014977
 23
110.3522880818913
 33
0.0
 14
1407.026202311376
 24
110.3522880818913
 34
0.0
 15
1407.36026783909
 25
110.2139136095924
 35
0.0
 16
1405.449244107918
 26
108.5796388230185
 36
0.0
  0
DIMENSION
  5
9501
330
5F6E
100
AcDbEntity
  8
标注
100
AcDbDimension
  2
*D219
 10
1390.086950190875
 20
93.91531308190167
 30
0.0
 11
1390.565189290278
 21
94.99531081716838
 31
0.0
 70
   164
  1
6-<>
 71
     5
 42
0.4724399999996649
  3
副本STANDARD
100
AcDbRadialDimension
 15
1389.791602654316
 25
93.54657281254072
 35
0.0
 40
0.0
1001
ACAD
1000
DSTYLE
1002
{
1070
    49
1040
1.25
1070
    50
1040
1.570796326794896
1070
   288
1070
     1
1070
   345
1005
5F5E
1070
   346
1005
5F5E
1070
   347
1005
5F5E
1002
}
1001
ACAD_DSTYLE_DIMRADIAL_EXTENSION
1070
   387
1070
     1
1070
   388
1040
3.141592653589793
1070
   390
1040
4.712388980384689
  0
DIMENSION
  5
9511
330
5F6E
100
AcDbEntity
  8
标注
100
AcDbDimension
  2
*D220
 10
1411.441238190878
 20
126.1207006719051
 30
0.0
 11
1400.567244190884
 21
126.1207006719051
 31
0.0
 70
    32
 71
     5
 42
21.7479879999878
  3
副本STANDARD
100
AcDbAlignedDimension
 13
1389.69325019089
 23
129.0334792229142
 33
0.0
 14
1411.441238190878
 24
129.0334792229142
 34
0.0
100
AcDbRotatedDimension
1001
ACAD
1000
DSTYLE
1002
{
1070
    49
1040
1.25
1070
    50
1040
1.570796326794896
1070
   345
1005
5F5E
1070
   346
1005
5F5E
1070
   347
1005
5F5E
1002
}
  0
DIMENSION
  5
951F
330
5F6E
100
AcDbEntity
  8
标注
100
AcDbDimension
  2
*D221
 10
1412.441236190892
 20
124.2966535345171
 30
0.0
 11
1400.567244190884
 21
124.2966535345171
 31
0.0
 70
    32
 71
     5
 42
23.74798400001578
  3
副本STANDARD
100
AcDbAlignedDimension
 13
1388.693252190876
 23
128.4888057853706
 33
0.0
 14
1412.441236190892
 24
128.4888057853706
 34
0.0
100
AcDbRotatedDimension
1001
ACAD
1000
DSTYLE
1002
{
1070
    49
1040
1.25
1070
    50
1040
1.570796326794896
1070
   345
1005
5F5E
1070
   346
1005
5F5E
1070
   347
1005
5F5E
1002
}
  0
DIMENSION
  5
952D
330
5F6E
100
AcDbEntity
  8
标注
100
AcDbDimension
  2
*D222
 10
1414.691301461141
 20
145.3917142229206
 30
0.0
 11
1414.691301461141
 21
137.0157467229101
 31
0.0
 70
    32
 71
     5
 42
16.75193500002152
  3
副本STANDARD
100
AcDbAlignedDimension
 13
1411.047538190892
 23
128.6397792228991
 33
0.0
 14
1407.026202311376
 24
145.3917142229206
 34
0.0
 50
90.0
100
AcDbRotatedDimension
1001
ACAD
1000
DSTYLE
1002
{
1070
    49
1040
1.25
1070
    50
1040
1.570796326794896
1070
   345
1005
5F5E
1070
   346
1005
5F5E
1070
   347
1005
5F5E
1002
}
  0
DIMENSION
  5
953B
330
5F6E
100
AcDbEntity
  8
标注
100
AcDbDimension
  2
*D223
 10
1416.869694969753
 20
146.3917122229927
 30
0.0
 11
1416.869694969753
 21
137.0157467229538
 31
0.0
 70
    32
 71
     5
 42
18.75193100007837
  3
副本STANDARD
100
AcDbAlignedDimension
 13
1411.441238190878
 23
127.6397812229144
 33
0.0
 14
1407.440415045233
 24
146.3917122229927
 34
0.0
 50
90.0
100
AcDbRotatedDimension
1001
ACAD
1000
DSTYLE
1002
{
1070
    49
1040
1.25
1070
    50
1040
1.570796326794896
1070
   345
1005
5F5E
1070
   346
1005
5F5E
1070
   347
1005
5F5E
1002
}
  0
DIMENSION
  5
9549
330
5F6E
100
AcDbEntity
  8
标注
100
AcDbDimension
  2
*D224
 10
1411.325926130624
 20
141.2550662831664
 30
0.0
 11
1408.654958584994
 21
139.9856394215917
 31
0.0
 70
    34
 71
     5
 42
2.356194490192339
  3
STANDARD
100
AcDb2LineAngularDimension
 13
1411.441238190878
 23
140.9766783434053
 33
0.0
 14
1411.441238190878
 24
129.0334792229142
 34
0.0
 15
1407.304590251138
 25
145.2764021626527
 35
0.0
 16
1408.425390877634
 26
141.1397542229125
 36
0.0
  0
DIMENSION
  5
9557
330
5F6E
100
AcDbEntity
  8
标注
100
AcDbDimension
  2
*D225
 10
1407.026202311376
 20
145.3917142229066
 30
0.0
 11
1406.225224206066
 21
143.0642820178994
 31
0.0
 70
    34
 71
     5
 42
2.356194490192343
  3
STANDARD
100
AcDb2LineAngularDimension
 13
1407.304590251138
 23
145.2764021626527
 33
0.0
 14
1411.325926130624
 24
141.2550662831664
 34
0.0
 15
1394.108286070391
 25
145.3917142229066
 35
0.0
 16
1405.407938701266
 26
143.6103747332883
 36
0.0
  0
DIMENSION
  5
9579
330
5F6E
100
AcDbEntity
  8
标注
100
AcDbDimension
  2
*D226
 10
1414.833680725574
 20
159.6519985455035
 30
0.0
 11
1414.833680725574
 21
164.6519985455037
 31
0.0
 70
    32
 71
     5
 42
10.0
  3
副本STANDARD
100
AcDbAlignedDimension
 13
1412.441236190892
 23
169.6519985455035
 33
0.0
 14
1412.441236190892
 24
159.6519985455035
 34
0.0
 50
90.0
100
AcDbRotatedDimension
1001
ACAD
1000
DSTYLE
1002
{
1070
    49
1040
1.25
1070
    50
1040
1.570796326794896
1070
   345
1005
5F5E
1070
   346
1005
5F5E
1070
   347
1005
5F5E
1002
}
  0
DIMENSION
  5
95C1
330
5F6E
100
AcDbEntity
  8
标注
100
AcDbDimension
  2
*D227
 10
1390.086950190875
 20
129.0334792229141
 30
0.0
 11
1390.557979711307
 21
130.2476460664622
 31
0.0
 70
   164
  1
6-<>
 71
     5
 42
0.3936999999997397
  3
副本STANDARD
100
AcDbRadialDimension
 15
1389.852385646664
 25
128.7172844022751
 35
0.0
 40
0.0
1001
ACAD
1000
DSTYLE
1002
{
1070
    49
1040
1.25
1070
    50
1040
1.570796326794896
1070
   288
1070
     1
1070
   345
1005
5F5E
1070
   346
1005
5F5E
1070
   347
1005
5F5E
1002
}
1001
ACAD_DSTYLE_DIMRADIAL_EXTENSION
1070
   387
1070
     1
1070
   388
1040
3.141592653589793
1070
   390
1040
4.712388980384689
  0
DIMENSION
  5
95CB
330
5F6E
100
AcDbEntity
  8
标注
100
AcDbDimension
  2
*D228
 10
1390.086950190876
 20
160.1083078776374
 30
0.0
 11
1390.719548958565
 21
161.126407495179
 31
0.0
 70
   164
 71
     5
 42
0.3937000000003081
  3
副本STANDARD
100
AcDbRadialDimension
 15
1389.786384576155
 25
159.8540245686137
 35
0.0
 40
0.0
1001
ACAD
1000
DSTYLE
1002
{
1070
    49
1040
1.25
1070
    50
1040
1.570796326794896
1070
   288
1070
     1
1070
   345
1005
5F5E
1070
   346
1005
5F5E
1070
   347
1005
5F5E
1002
}
1001
ACAD_DSTYLE_DIMRADIAL_EXTENSION
1070
   387
1070
     1
1070
   388
1040
3.141592653589793
1070
   390
1040
4.692363003776993
  0
ENDSEC
  0
SECTION
  2
OBJECTS
  0
DICTIONARY
  5
5F06
330
0
100
AcDbDictionary
281
     1
  3
ACAD_2007HEADERVARS_RT
350
96AA
  3
ACAD_COLOR
350
5F64
  3
ACAD_GROUP
350
5F07
  3
ACAD_LAYOUT
350
5F63
  3
ACAD_MATERIAL
350
5F0A
  3
ACAD_MLEADERSTYLE
350
5F67
  3
ACAD_MLINESTYLE
350
5F60
  3
ACAD_PLOTSETTINGS
350
5F62
  3
ACAD_PLOTSTYLENAME
350
5F08
  3
ACAD_SCALELIST
350
5F34
  3
ACAD_TABLESTYLE
350
5F65
  3
ACAD_VISUALSTYLE
350
5F23
  3
ACDB_RECOMPOSE_DATA
350
6F70
  3
AcDbVariableDictionary
350
6102
  3
DWGPROPS
350
96A9
  3
lxx_dict
350
60F2
  0
DICTIONARY
  5
61B7
330
5EFC
100
AcDbDictionary
280
     1
281
     1
  3
ACAD_LAYERSTATES
360
61B8
  0
DICTIONARY
  5
60F4
330
5F56
100
AcDbDictionary
280
     1
281
     1
  3
ADSK_XREC_LAYER_RECONCILED
360
60F5
  0
DICTIONARY
  5
60F6
330
5F72
100
AcDbDictionary
280
     1
281
     1
  3
ADSK_XREC_LAYER_RECONCILED
360
60F7
  0
DICTIONARY
  5
60F8
330
5F7D
100
AcDbDictionary
280
     1
281
     1
  3
ADSK_XREC_LAYER_RECONCILED
360
60F9
  0
DICTIONARY
  5
60FA
330
5F7E
100
AcDbDictionary
280
     1
281
     1
  3
ADSK_XREC_LAYER_RECONCILED
360
60FB
  0
DICTIONARY
  5
60FC
330
5F80
100
AcDbDictionary
280
     1
281
     1
  3
ADSK_XREC_LAYER_RECONCILED
360
60FD
  0
DICTIONARY
  5
654F
330
5F6E
100
AcDbDictionary
280
     1
281
     1
  3
ACAD_SORTENTS
360
6550
  0
DICTIONARY
  5
96AA
102
{ACAD_REACTORS
330
5F06
102
}
330
5F06
100
AcDbDictionary
281
     1
  3
DIMFXL
350
96AB
  3
DIMJOGANG
350
96AC
  3
DIMLTEX1
350
96AE
  3
DIMLTEX2
350
96AF
  3
DIMLTYPE
350
96AD
  0
DICTIONARY
  5
5F64
102
{ACAD_REACTORS
330
5F06
102
}
330
5F06
100
AcDbDictionary
281
     1
  0
DICTIONARY
  5
5F07
102
{ACAD_REACTORS
330
5F06
102
}
330
5F06
100
AcDbDictionary
281
     1
  0
DICTIONARY
  5
5F63
102
{ACAD_REACTORS
330
5F06
102
}
330
5F06
100
AcDbDictionary
281
     1
  3
Model
350
5F71
  3
布局1
350
5F6D
  0
DICTIONARY
  5
5F0A
102
{ACAD_REACTORS
330
5F06
102
}
330
5F06
100
AcDbDictionary
281
     1
  3
ByBlock
350
5F13
  3
ByLayer
350
5F0B
  3
Global
350
5F1B
  0
DICTIONARY
  5
5F67
102
{ACAD_REACTORS
330
5F06
102
}
330
5F06
100
AcDbDictionary
281
     1
  3
Standard
350
5F68
  0
DICTIONARY
  5
5F60
102
{ACAD_REACTORS
330
5F06
102
}
330
5F06
100
AcDbDictionary
281
     1
  3
Standard
350
5F61
  0
DICTIONARY
  5
5F62
102
{ACAD_REACTORS
330
5F06
102
}
330
5F06
100
AcDbDictionary
281
     1
  0
ACDBDICTIONARYWDFLT
  5
5F08
102
{ACAD_REACTORS
330
5F06
102
}
330
5F06
100
AcDbDictionary
281
     1
  3
Normal
350
5F09
100
AcDbDictionaryWithDefault
340
5F09
  0
DICTIONARY
  5
5F34
102
{ACAD_REACTORS
330
5F06
102
}
330
5F06
100
AcDbDictionary
281
     1
  3
A0
350
5F35
  3
A1
350
5F36
  3
A2
350
5F37
  3
A3
350
5F38
  3
A4
350
5F39
  3
A5
350
5F3A
  3
A6
350
5F3B
  3
A7
350
5F3C
  3
A8
350
5F3D
  3
A9
350
5F3E
  3
B0
350
5F3F
  3
B1
350
5F40
  3
B2
350
5F41
  3
B3
350
5F42
  3
B4
350
5F43
  3
B5
350
5F44
  3
B6
350
5F45
  3
B7
350
5F46
  3
B8
350
5F47
  3
B9
350
5F48
  3
C0
350
5F49
  3
C1
350
5F4A
  3
C2
350
5F4B
  3
C3
350
5F4C
  3
C4
350
5F4D
  3
C5
350
5F4E
  3
C6
350
5F4F
  3
C7
350
5F50
  3
C8
350
5F51
  3
C9
350
5F52
  3
D0
350
5F53
  3
D1
350
5F54
  3
D2
350
5F55
  0
DICTIONARY
  5
5F65
102
{ACAD_REACTORS
330
5F06
102
}
330
5F06
100
AcDbDictionary
281
     1
  3
Standard
350
5F66
  0
DICTIONARY
  5
5F23
102
{ACAD_REACTORS
330
5F06
102
}
330
5F06
100
AcDbDictionary
281
     1
  3
2dWireframe
350
5F29
  3
3D Hidden
350
5F2B
  3
3dWireframe
350
5F2A
  3
Basic
350
5F28
  3
Brighten
350
5F2F
  3
ColorChange
350
5F33
  3
Conceptual
350
5F2C
  3
Dim
350
5F2E
  3
Facepattern
350
5F32
  3
Flat
350
5F24
  3
FlatWithEdges
350
5F25
  3
Gouraud
350
5F26
  3
GouraudWithEdges
350
5F27
  3
Linepattern
350
5F31
  3
Realistic
350
5F2D
  3
Thicken
350
5F30
  0
XRECORD
  5
6F70
102
{ACAD_REACTORS
330
5F06
102
}
330
5F06
100
AcDbXrecord
280
     1
 90
        1
330
5F66
  0
DICTIONARY
  5
6102
102
{ACAD_REACTORS
330
5F06
102
}
330
5F06
100
AcDbDictionary
281
     1
  3
CANNOSCALE
350
6105
  3
CMLEADERSTYLE
350
6104
  3
CTABLESTYLE
350
6103
  3
DIMASSOC
350
6108
  3
INDEXCTL
350
6107
  3
SORTENTS
350
6106
  0
XRECORD
  5
96A9
102
{ACAD_REACTORS
330
5F06
102
}
330
5F06
100
AcDbXrecord
280
     1
  1
DWGPROPS COOKIE
  2

  3

  4

  6

  7

  8
Administrator
  9

300
=
301
=
302
=
303
=
304
=
305
=
306
=
307
=
308
=
309
=
 40
0.8223953587962963
 41
2455434.724808658
 42
2458563.641172998
  1

 90
        0
  0
DICTIONARY
  5
60F2
102
{ACAD_REACTORS
330
5F06
102
}
330
5F06
100
AcDbDictionary
281
     1
  3
lxx_dimth
350
60F3
  0
DICTIONARY
  5
61B8
102
{ACAD_REACTORS
330
61B7
102
}
330
61B7
100
AcDbDictionary
281
     1
  0
XRECORD
  5
60F5
102
{ACAD_REACTORS
330
60F4
102
}
330
60F4
100
AcDbXrecord
280
     1
290
     1
  0
XRECORD
  5
60F7
102
{ACAD_REACTORS
330
60F6
102
}
330
60F6
100
AcDbXrecord
280
     1
290
     1
  0
XRECORD
  5
60F9
102
{ACAD_REACTORS
330
60F8
102
}
330
60F8
100
AcDbXrecord
280
     1
290
     1
  0
XRECORD
  5
60FB
102
{ACAD_REACTORS
330
60FA
102
}
330
60FA
100
AcDbXrecord
280
     1
290
     1
  0
XRECORD
  5
60FD
102
{ACAD_REACTORS
330
60FC
102
}
330
60FC
100
AcDbXrecord
280
     1
290
     1
  0
SORTENTSTABLE
  5
6550
102
{ACAD_REACTORS
330
654F
102
}
330
654F
100
AcDbSortentsTable
330
5F6E
  0
XRECORD
  5
96AB
102
{ACAD_REACTORS
330
96AA
102
}
330
96AA
100
AcDbXrecord
280
     1
 40
1.25
  0
XRECORD
  5
96AC
102
{ACAD_REACTORS
330
96AA
102
}
330
96AA
100
AcDbXrecord
280
     1
 40
1.570796326794896
  0
XRECORD
  5
96AE
102
{ACAD_REACTORS
330
96AA
102
}
330
96AA
100
AcDbXrecord
280
     1
340
5F5E
  0
XRECORD
  5
96AF
102
{ACAD_REACTORS
330
96AA
102
}
330
96AA
100
AcDbXrecord
280
     1
340
5F5E
  0
XRECORD
  5
96AD
102
{ACAD_REACTORS
330
96AA
102
}
330
96AA
100
AcDbXrecord
280
     1
340
5F5E
  0
LAYOUT
  5
5F71
102
{ACAD_XDICTIONARY
360
96B3
102
}
102
{ACAD_REACTORS
330
5F63
102
}
330
5F63
100
AcDbPlotSettings
  1

  2
\\192.168.1.64\Canon LBP2900
  4
A4
  6

 40
5.873749732971191
 41
6.805061340332031
 42
5.873748779296875
 43
4.857757568359375
 44
209.9733276367186
 45
296.9259948730469
 46
0.0
 47
0.0
 48
0.0
 49
0.0
140
0.0
141
0.0
142
1.0
143
15.879357507287
 70
 11952
 72
     0
 73
     1
 74
     0
  7

 75
     0
147
0.0629748401055334
148
-27226.80690415248
149
-2266.514499453142
100
AcDbLayout
  1
Model
 70
     1
 71
     0
 10
0.0
 20
0.0
 11
12.0
 21
9.0
 12
0.0
 22
0.0
 32
0.0
 14
0.0
 24
0.0
 34
0.0
 15
0.0
 25
0.0
 35
0.0
146
0.0
 13
0.0
 23
0.0
 33
0.0
 16
1.0
 26
0.0
 36
0.0
 17
0.0
 27
1.0
 37
0.0
 76
     0
330
5F6E
331
5F73
1001
ACAD_PSEXT
1000
\\192.168.1.64\Canon LBP2900
1000
Canon LBP2900
1000
\\192.168.1.64
1000

1070
     0
  0
LAYOUT
  5
5F6D
102
{ACAD_XDICTIONARY
360
96B1
102
}
102
{ACAD_REACTORS
330
5F63
102
}
330
5F63
100
AcDbPlotSettings
  1

  2
\\192.168.1.64\Canon LBP2900
  4

  6

 40
0.0
 41
0.0
 42
0.0
 43
0.0
 44
0.0
 45
0.0
 46
0.0
 47
0.0
 48
0.0
 49
0.0
140
0.0
141
0.0
142
1.0
143
1.0
 70
   688
 72
     0
 73
     0
 74
     5
  7

 75
    16
147
1.0
148
0.0
149
0.0
100
AcDbLayout
  1
布局1
 70
     1
 71
     1
 10
0.0
 20
0.0
 11
12.0
 21
9.0
 12
0.0
 22
0.0
 32
0.0
 14
1.000000000000000E+20
 24
1.000000000000000E+20
 34
1.000000000000000E+20
 15
-1.000000000000000E+20
 25
-1.000000000000000E+20
 35
-1.000000000000000E+20
146
0.0
 13
0.0
 23
0.0
 33
0.0
 16
1.0
 26
0.0
 36
0.0
 17
0.0
 27
1.0
 37
0.0
 76
     0
330
5F6A
  0
MATERIAL
  5
5F13
102
{ACAD_XDICTIONARY
360
5F14
102
}
102
{ACAD_REACTORS
330
5F0A
102
}
330
5F0A
100
AcDbMaterial
  1
ByBlock
 72
     0
 43
0.0208333333333333
 43
0.0
 43
0.0
 43
0.0
 43
0.0
 43
0.0208333333333333
 43
0.0
 43
0.0
 43
0.0
 43
0.0
 43
1.0
 43
0.0
 43
0.0
 43
0.0
 43
0.0
 43
1.0
 77
     0
 47
0.0208333333333333
 47
0.0
 47
0.0
 47
0.0
 47
0.0
 47
0.0208333333333333
 47
0.0
 47
0.0
 47
0.0
 47
0.0
 47
1.0
 47
0.0
 47
0.0
 47
0.0
 47
0.0
 47
1.0
171
     0
 49
0.0208333333333333
 49
0.0
 49
0.0
 49
0.0
 49
0.0
 49
0.0208333333333333
 49
0.0
 49
0.0
 49
0.0
 49
0.0
 49
1.0
 49
0.0
 49
0.0
 49
0.0
 49
0.0
 49
1.0
175
     0
142
0.0208333333333333
142
0.0
142
0.0
142
0.0
142
0.0
142
0.0208333333333333
142
0.0
142
0.0
142
0.0
142
0.0
142
1.0
142
0.0
142
0.0
142
0.0
142
0.0
142
1.0
179
     0
144
0.0208333333333333
144
0.0
144
0.0
144
0.0
144
0.0
144
0.0208333333333333
144
0.0
144
0.0
144
0.0
144
0.0
144
1.0
144
0.0
144
0.0
144
0.0
144
0.0
144
1.0
147
0.0208333333333333
147
0.0
147
0.0
147
0.0
147
0.0
147
0.0208333333333333
147
0.0
147
0.0
147
0.0
147
0.0
147
1.0
147
0.0
147
0.0
147
0.0
147
0.0
147
1.0
  0
MATERIAL
  5
5F0B
102
{ACAD_XDICTIONARY
360
5F0C
102
}
102
{ACAD_REACTORS
330
5F0A
102
}
330
5F0A
100
AcDbMaterial
  1
ByLayer
 72
     0
 43
0.0208333333333333
 43
0.0
 43
0.0
 43
0.0
 43
0.0
 43
0.0208333333333333
 43
0.0
 43
0.0
 43
0.0
 43
0.0
 43
1.0
 43
0.0
 43
0.0
 43
0.0
 43
0.0
 43
1.0
 77
     0
 47
0.0208333333333333
 47
0.0
 47
0.0
 47
0.0
 47
0.0
 47
0.0208333333333333
 47
0.0
 47
0.0
 47
0.0
 47
0.0
 47
1.0
 47
0.0
 47
0.0
 47
0.0
 47
0.0
 47
1.0
171
     0
 49
0.0208333333333333
 49
0.0
 49
0.0
 49
0.0
 49
0.0
 49
0.0208333333333333
 49
0.0
 49
0.0
 49
0.0
 49
0.0
 49
1.0
 49
0.0
 49
0.0
 49
0.0
 49
0.0
 49
1.0
175
     0
142
0.0208333333333333
142
0.0
142
0.0
142
0.0
142
0.0
142
0.0208333333333333
142
0.0
142
0.0
142
0.0
142
0.0
142
1.0
142
0.0
142
0.0
142
0.0
142
0.0
142
1.0
179
     0
144
0.0208333333333333
144
0.0
144
0.0
144
0.0
144
0.0
144
0.0208333333333333
144
0.0
144
0.0
144
0.0
144
0.0
144
1.0
144
0.0
144
0.0
144
0.0
144
0.0
144
1.0
147
0.0208333333333333
147
0.0
147
0.0
147
0.0
147
0.0
147
0.0208333333333333
147
0.0
147
0.0
147
0.0
147
0.0
147
1.0
147
0.0
147
0.0
147
0.0
147
0.0
147
1.0
  0
MATERIAL
  5
5F1B
102
{ACAD_XDICTIONARY
360
5F1C
102
}
102
{ACAD_REACTORS
330
5F0A
102
}
330
5F0A
100
AcDbMaterial
  1
Global
 72
     0
 43
0.0208333333333333
 43
0.0
 43
0.0
 43
0.0
 43
0.0
 43
0.0208333333333333
 43
0.0
 43
0.0
 43
0.0
 43
0.0
 43
1.0
 43
0.0
 43
0.0
 43
0.0
 43
0.0
 43
1.0
 77
     0
 47
0.0208333333333333
 47
0.0
 47
0.0
 47
0.0
 47
0.0
 47
0.0208333333333333
 47
0.0
 47
0.0
 47
0.0
 47
0.0
 47
1.0
 47
0.0
 47
0.0
 47
0.0
 47
0.0
 47
1.0
171
     0
 49
0.0208333333333333
 49
0.0
 49
0.0
 49
0.0
 49
0.0
 49
0.0208333333333333
 49
0.0
 49
0.0
 49
0.0
 49
0.0
 49
1.0
 49
0.0
 49
0.0
 49
0.0
 49
0.0
 49
1.0
175
     0
142
0.0208333333333333
142
0.0
142
0.0
142
0.0
142
0.0
142
0.0208333333333333
142
0.0
142
0.0
142
0.0
142
0.0
142
1.0
142
0.0
142
0.0
142
0.0
142
0.0
142
1.0
179
     0
144
0.0208333333333333
144
0.0
144
0.0
144
0.0
144
0.0
144
0.0208333333333333
144
0.0
144
0.0
144
0.0
144
0.0
144
1.0
144
0.0
144
0.0
144
0.0
144
0.0
144
1.0
147
0.0208333333333333
147
0.0
147
0.0
147
0.0
147
0.0
147
0.0208333333333333
147
0.0
147
0.0
147
0.0
147
0.0
147
1.0
147
0.0
147
0.0
147
0.0
147
0.0
147
1.0
  0
MLEADERSTYLE
  5
5F68
102
{ACAD_REACTORS
330
5F67
102
}
330
5F67
100
AcDbMLeaderStyle
170
     2
171
     1
172
     0
 90
        2
 40
0.0
 41
0.0
173
     1
 91
-1056964608
340
5F5C
 92
       -2
290
     1
 42
0.09
291
     1
 43
0.36
  3
Standard
 44
0.18
300

342
5F57
174
     1
178
     6
175
     1
176
     0
 93
-1056964608
 45
0.18
292
     0
297
     0
 46
0.18
 94
-1056964608
 47
1.0
 49
1.0
140
1.0
293
     1
141
0.0
294
     1
177
     0
142
1.0
295
     0
296
     0
143
0.125
1001
ACAD_MLEADERVER
1070
     2
  0
MLINESTYLE
  5
5F61
102
{ACAD_REACTORS
330
5F60
102
}
330
5F60
100
AcDbMlineStyle
  2
STANDARD
 70
     0
  3

 62
   256
 51
90.0
 52
90.0
 71
     2
 49
0.5
 62
   256
  6
BYLAYER
 49
-0.5
 62
   256
  6
BYLAYER
  0
ACDBPLACEHOLDER
  5
5F09
102
{ACAD_REACTORS
330
5F08
102
}
330
5F08
  0
SCALE
  5
5F35
102
{ACAD_REACTORS
330
5F34
102
}
330
5F34
100
AcDbScale
 70
     0
300
1:1
140
1.0
141
1.0
290
     1
  0
SCALE
  5
5F36
102
{ACAD_REACTORS
330
5F34
102
}
330
5F34
100
AcDbScale
 70
     0
300
1:2
140
1.0
141
2.0
290
     0
  0
SCALE
  5
5F37
102
{ACAD_REACTORS
330
5F34
102
}
330
5F34
100
AcDbScale
 70
     0
300
1:4
140
1.0
141
4.0
290
     0
  0
SCALE
  5
5F38
102
{ACAD_REACTORS
330
5F34
102
}
330
5F34
100
AcDbScale
 70
     0
300
1:5
140
1.0
141
5.0
290
     0
  0
SCALE
  5
5F39
102
{ACAD_REACTORS
330
5F34
102
}
330
5F34
100
AcDbScale
 70
     0
300
1:8
140
1.0
141
8.0
290
     0
  0
SCALE
  5
5F3A
102
{ACAD_REACTORS
330
5F34
102
}
330
5F34
100
AcDbScale
 70
     0
300
1:10
140
1.0
141
10.0
290
     0
  0
SCALE
  5
5F3B
102
{ACAD_REACTORS
330
5F34
102
}
330
5F34
100
AcDbScale
 70
     0
300
1:16
140
1.0
141
16.0
290
     0
  0
SCALE
  5
5F3C
102
{ACAD_REACTORS
330
5F34
102
}
330
5F34
100
AcDbScale
 70
     0
300
1:20
140
1.0
141
20.0
290
     0
  0
SCALE
  5
5F3D
102
{ACAD_REACTORS
330
5F34
102
}
330
5F34
100
AcDbScale
 70
     0
300
1:30
140
1.0
141
30.0
290
     0
  0
SCALE
  5
5F3E
102
{ACAD_REACTORS
330
5F34
102
}
330
5F34
100
AcDbScale
 70
     0
300
1:40
140
1.0
141
40.0
290
     0
  0
SCALE
  5
5F3F
102
{ACAD_REACTORS
330
5F34
102
}
330
5F34
100
AcDbScale
 70
     0
300
1:50
140
1.0
141
50.0
290
     0
  0
SCALE
  5
5F40
102
{ACAD_REACTORS
330
5F34
102
}
330
5F34
100
AcDbScale
 70
     0
300
1:100
140
1.0
141
100.0
290
     0
  0
SCALE
  5
5F41
102
{ACAD_REACTORS
330
5F34
102
}
330
5F34
100
AcDbScale
 70
     0
300
2:1
140
2.0
141
1.0
290
     0
  0
SCALE
  5
5F42
102
{ACAD_REACTORS
330
5F34
102
}
330
5F34
100
AcDbScale
 70
     0
300
4:1
140
4.0
141
1.0
290
     0
  0
SCALE
  5
5F43
102
{ACAD_REACTORS
330
5F34
102
}
330
5F34
100
AcDbScale
 70
     0
300
8:1
140
8.0
141
1.0
290
     0
  0
SCALE
  5
5F44
102
{ACAD_REACTORS
330
5F34
102
}
330
5F34
100
AcDbScale
 70
     0
300
10:1
140
10.0
141
1.0
290
     0
  0
SCALE
  5
5F45
102
{ACAD_REACTORS
330
5F34
102
}
330
5F34
100
AcDbScale
 70
     0
300
100:1
140
100.0
141
1.0
290
     0
  0
SCALE
  5
5F46
102
{ACAD_REACTORS
330
5F34
102
}
330
5F34
100
AcDbScale
 70
     0
300
1/128" = 1'-0"
140
0.0078125
141
12.0
290
     0
  0
SCALE
  5
5F47
102
{ACAD_REACTORS
330
5F34
102
}
330
5F34
100
AcDbScale
 70
     0
300
1/64" = 1'-0"
140
0.015625
141
12.0
290
     0
  0
SCALE
  5
5F48
102
{ACAD_REACTORS
330
5F34
102
}
330
5F34
100
AcDbScale
 70
     0
300
1/32" = 1'-0"
140
0.03125
141
12.0
290
     0
  0
SCALE
  5
5F49
102
{ACAD_REACTORS
330
5F34
102
}
330
5F34
100
AcDbScale
 70
     0
300
1/16" = 1'-0"
140
0.0625
141
12.0
290
     0
  0
SCALE
  5
5F4A
102
{ACAD_REACTORS
330
5F34
102
}
330
5F34
100
AcDbScale
 70
     0
300
3/32" = 1'-0"
140
0.09375
141
12.0
290
     0
  0
SCALE
  5
5F4B
102
{ACAD_REACTORS
330
5F34
102
}
330
5F34
100
AcDbScale
 70
     0
300
1/8" = 1'-0"
140
0.125
141
12.0
290
     0
  0
SCALE
  5
5F4C
102
{ACAD_REACTORS
330
5F34
102
}
330
5F34
100
AcDbScale
 70
     0
300
3/16" = 1'-0"
140
0.1875
141
12.0
290
     0
  0
SCALE
  5
5F4D
102
{ACAD_REACTORS
330
5F34
102
}
330
5F34
100
AcDbScale
 70
     0
300
1/4" = 1'-0"
140
0.25
141
12.0
290
     0
  0
SCALE
  5
5F4E
102
{ACAD_REACTORS
330
5F34
102
}
330
5F34
100
AcDbScale
 70
     0
300
3/8" = 1'-0"
140
0.375
141
12.0
290
     0
  0
SCALE
  5
5F4F
102
{ACAD_REACTORS
330
5F34
102
}
330
5F34
100
AcDbScale
 70
     0
300
1/2" = 1'-0"
140
0.5
141
12.0
290
     0
  0
SCALE
  5
5F50
102
{ACAD_REACTORS
330
5F34
102
}
330
5F34
100
AcDbScale
 70
     0
300
3/4" = 1'-0"
140
0.75
141
12.0
290
     0
  0
SCALE
  5
5F51
102
{ACAD_REACTORS
330
5F34
102
}
330
5F34
100
AcDbScale
 70
     0
300
1" = 1'-0"
140
1.0
141
12.0
290
     0
  0
SCALE
  5
5F52
102
{ACAD_REACTORS
330
5F34
102
}
330
5F34
100
AcDbScale
 70
     0
300
1-1/2" = 1'-0"
140
1.5
141
12.0
290
     0
  0
SCALE
  5
5F53
102
{ACAD_REACTORS
330
5F34
102
}
330
5F34
100
AcDbScale
 70
     0
300
3" = 1'-0"
140
3.0
141
12.0
290
     0
  0
SCALE
  5
5F54
102
{ACAD_REACTORS
330
5F34
102
}
330
5F34
100
AcDbScale
 70
     0
300
6" = 1'-0"
140
6.0
141
12.0
290
     0
  0
SCALE
  5
5F55
102
{ACAD_REACTORS
330
5F34
102
}
330
5F34
100
AcDbScale
 70
     0
300
1'-0" = 1'-0"
140
12.0
141
12.0
290
     0
  0
TABLESTYLE
  5
5F66
102
{ACAD_XDICTIONARY
360
6F6E
102
}
102
{ACAD_REACTORS
330
5F65
102
}
330
5F65
100
AcDbTableStyle
  3
Standard
 70
     0
 71
     0
 40
0.06
 41
0.06
280
     0
281
     0
  7
STANDARD
140
0.18
170
     2
 62
     0
 63
     7
283
     0
274
    -2
284
     1
 64
     0
275
    -2
285
     1
 65
     0
276
    -2
286
     1
 66
     0
277
    -2
287
     1
 67
     0
278
    -2
288
     1
 68
     0
279
    -2
289
     1
 69
     0
  7
STANDARD
140
0.25
170
     5
 62
     0
 63
     7
283
     0
274
    -2
284
     1
 64
     0
275
    -2
285
     1
 65
     0
276
    -2
286
     1
 66
     0
277
    -2
287
     1
 67
     0
278
    -2
288
     1
 68
     0
279
    -2
289
     1
 69
     0
  7
STANDARD
140
0.18
170
     5
 62
     0
 63
     7
283
     0
274
    -2
284
     1
 64
     0
275
    -2
285
     1
 65
     0
276
    -2
286
     1
 66
     0
277
    -2
287
     1
 67
     0
278
    -2
288
     1
 68
     0
279
    -2
289
     1
 69
     0
  0
VISUALSTYLE
  5
5F29
102
{ACAD_REACTORS
330
5F23
102
}
330
5F23
100
AcDbVisualStyle
  2
2dWireframe
 70
     4
 71
     0
 72
     2
 73
     0
 90
        0
 40
-0.6
 41
-30.0
 62
     5
 63
     7
 74
     1
 91
        4
 64
     7
 65
   257
 75
     1
175
     1
 42
1.0
 92
        0
 66
   257
 43
1.0
 76
     1
 77
     6
 78
     2
 67
     7
 79
     5
170
     0
171
     0
290
     0
174
     0
 93
        1
 44
0.0
173
     0
291
     0
 45
0.0
1001
ACAD
1000
AcDbSavedByObjectVersion
1070
     0
1000
AcDbSavedByObjectVersion
1070
     0
1000
AcDbSavedByObjectVersion
1070
     0
  0
VISUALSTYLE
  5
5F2B
102
{ACAD_REACTORS
330
5F23
102
}
330
5F23
100
AcDbVisualStyle
  2
3D Hidden
 70
     6
 71
     1
 72
     2
 73
     2
 90
        0
 40
-0.6
 41
-30.0
 62
     5
 63
     7
 74
     2
 91
        2
 64
     7
 65
   257
 75
     2
175
     1
 42
40.0
 92
        0
 66
   257
 43
1.0
 76
     1
 77
     6
 78
     2
 67
     7
 79
     3
170
     0
171
     0
290
     0
174
     0
 93
        1
 44
0.0
173
     0
291
     0
 45
0.0
1001
ACAD
1000
AcDbSavedByObjectVersion
1070
     0
1000
AcDbSavedByObjectVersion
1070
     0
1000
AcDbSavedByObjectVersion
1070
     0
  0
VISUALSTYLE
  5
5F2A
102
{ACAD_REACTORS
330
5F23
102
}
330
5F23
100
AcDbVisualStyle
  2
3dWireframe
 70
     5
 71
     0
 72
     2
 73
     0
 90
        0
 40
-0.6
 41
-30.0
 62
     5
 63
     7
 74
     1
 91
        4
 64
     7
 65
   257
 75
     1
175
     1
 42
1.0
 92
        0
 66
   257
 43
1.0
 76
     1
 77
     6
 78
     2
 67
     7
 79
     5
170
     0
171
     0
290
     0
174
     0
 93
        1
 44
0.0
173
     0
291
     0
 45
0.0
1001
ACAD
1000
AcDbSavedByObjectVersion
1070
     0
1000
AcDbSavedByObjectVersion
1070
     0
1000
AcDbSavedByObjectVersion
1070
     0
  0
VISUALSTYLE
  5
5F28
102
{ACAD_REACTORS
330
5F23
102
}
330
5F23
100
AcDbVisualStyle
  2
Basic
 70
     7
 71
     1
 72
     0
 73
     1
 90
        0
 40
-0.6
 41
-30.0
 62
     5
 63
     7
 74
     0
 91
        4
 64
     7
 65
   257
 75
     1
175
     1
 42
1.0
 92
        8
 66
     7
 43
1.0
 76
     1
 77
     6
 78
     2
 67
     7
 79
     5
170
     0
171
     0
290
     0
174
     0
 93
        1
 44
0.0
173
     0
291
     1
 45
0.0
1001
ACAD
1000
AcDbSavedByObjectVersion
1070
     0
1000
AcDbSavedByObjectVersion
1070
     0
1000
AcDbSavedByObjectVersion
1070
     0
  0
VISUALSTYLE
  5
5F2F
102
{ACAD_REACTORS
330
5F23
102
}
330
5F23
100
AcDbVisualStyle
  2
Brighten
 70
    12
 71
     2
 72
     2
 73
     0
 90
        0
 40
-0.6
 41
-30.0
 62
     5
 63
     7
 74
     1
 91
        4
 64
     7
 65
   257
 75
     1
175
     1
 42
1.0
 92
        8
 66
     7
 43
1.0
 76
     1
 77
     6
 78
     2
 67
     7
 79
     5
170
     0
171
     0
290
     0
174
     0
 93
        1
 44
50.0
173
     0
291
     1
 45
0.0
1001
ACAD
1000
AcDbSavedByObjectVersion
1070
     0
1000
AcDbSavedByObjectVersion
1070
     0
1000
AcDbSavedByObjectVersion
1070
     0
  0
VISUALSTYLE
  5
5F33
102
{ACAD_REACTORS
330
5F23
102
}
330
5F23
100
AcDbVisualStyle
  2
ColorChange
 70
    16
 71
     2
 72
     2
 73
     3
 90
        0
 40
-0.6
 41
-30.0
 62
     5
 63
     8
 74
     1
 91
        4
 64
     7
 65
   257
 75
     1
175
     1
 42
1.0
 92
        8
 66
     8
 43
1.0
 76
     1
 77
     6
 78
     2
 67
     7
 79
     5
170
     0
171
     0
290
     0
174
     0
 93
        1
 44
0.0
173
     0
291
     1
 45
0.0
1001
ACAD
1000
AcDbSavedByObjectVersion
1070
     0
1000
AcDbSavedByObjectVersion
1070
     0
1000
AcDbSavedByObjectVersion
1070
     0
  0
VISUALSTYLE
  5
5F2C
102
{ACAD_REACTORS
330
5F23
102
}
330
5F23
100
AcDbVisualStyle
  2
Conceptual
 70
     9
 71
     3
 72
     2
 73
     0
 90
        0
 40
-0.6
 41
-30.0
 62
     5
 63
     7
 74
     2
 91
        2
 64
     7
 65
   257
 75
     1
175
     1
 42
40.0
 92
        8
 66
     7
 43
1.0
 76
     1
 77
     6
 78
     2
 67
     7
 79
     3
170
     0
171
     0
290
     0
174
     0
 93
        1
 44
0.0
173
     0
291
     0
 45
0.0
1001
ACAD
1000
AcDbSavedByObjectVersion
1070
     0
1000
AcDbSavedByObjectVersion
1070
     0
1000
AcDbSavedByObjectVersion
1070
     0
  0
VISUALSTYLE
  5
5F2E
102
{ACAD_REACTORS
330
5F23
102
}
330
5F23
100
AcDbVisualStyle
  2
Dim
 70
    11
 71
     2
 72
     2
 73
     0
 90
        0
 40
-0.6
 41
-30.0
 62
     5
 63
     7
 74
     1
 91
        4
 64
     7
 65
   257
 75
     1
175
     1
 42
1.0
 92
        8
 66
     7
 43
1.0
 76
     1
 77
     6
 78
     2
 67
     7
 79
     5
170
     0
171
     0
290
     0
174
     0
 93
        1
 44
-50.0
173
     0
291
     1
 45
0.0
1001
ACAD
1000
AcDbSavedByObjectVersion
1070
     0
1000
AcDbSavedByObjectVersion
1070
     0
1000
AcDbSavedByObjectVersion
1070
     0
  0
VISUALSTYLE
  5
5F32
102
{ACAD_REACTORS
330
5F23
102
}
330
5F23
100
AcDbVisualStyle
  2
Facepattern
 70
    15
 71
     2
 72
     2
 73
     0
 90
        0
 40
-0.6
 41
-30.0
 62
     5
 63
     7
 74
     1
 91
        4
 64
     7
 65
   257
 75
     1
175
     1
 42
1.0
 92
        8
 66
     7
 43
1.0
 76
     1
 77
     6
 78
     2
 67
     7
 79
     5
170
     0
171
     0
290
     0
174
     0
 93
        1
 44
0.0
173
     0
291
     1
 45
0.0
1001
ACAD
1000
AcDbSavedByObjectVersion
1070
     0
1000
AcDbSavedByObjectVersion
1070
     0
1000
AcDbSavedByObjectVersion
1070
     0
  0
VISUALSTYLE
  5
5F24
102
{ACAD_REACTORS
330
5F23
102
}
330
5F23
100
AcDbVisualStyle
  2
Flat
 70
     0
 71
     2
 72
     1
 73
     1
 90
        2
 40
-0.6
 41
30.0
 62
     5
 63
     7
 74
     0
 91
        4
 64
     7
 65
   257
 75
     1
175
     1
 42
1.0
 92
        8
 66
     7
 43
1.0
 76
     1
 77
     6
 78
     2
 67
     7
 79
     5
170
     0
171
     0
290
     0
174
     0
 93
       13
 44
0.0
173
     0
291
     1
 45
0.0
1001
ACAD
1000
AcDbSavedByObjectVersion
1070
     0
1000
AcDbSavedByObjectVersion
1070
     0
1000
AcDbSavedByObjectVersion
1070
     0
  0
VISUALSTYLE
  5
5F25
102
{ACAD_REACTORS
330
5F23
102
}
330
5F23
100
AcDbVisualStyle
  2
FlatWithEdges
 70
     1
 71
     2
 72
     1
 73
     1
 90
        2
 40
-0.6
 41
30.0
 62
     5
 63
     7
 74
     1
 91
        4
 64
     7
 65
   257
 75
     1
175
     1
 42
1.0
 92
        0
 66
   257
 43
1.0
 76
     1
 77
     6
 78
     2
 67
     7
 79
     5
170
     0
171
     0
290
     0
174
     0
 93
       13
 44
0.0
173
     0
291
     1
 45
0.0
1001
ACAD
1000
AcDbSavedByObjectVersion
1070
     0
1000
AcDbSavedByObjectVersion
1070
     0
1000
AcDbSavedByObjectVersion
1070
     0
  0
VISUALSTYLE
  5
5F26
102
{ACAD_REACTORS
330
5F23
102
}
330
5F23
100
AcDbVisualStyle
  2
Gouraud
 70
     2
 71
     2
 72
     2
 73
     1
 90
        2
 40
-0.6
 41
30.0
 62
     5
 63
     7
 74
     0
 91
        4
 64
     7
 65
   257
 75
     1
175
     1
 42
1.0
 92
        0
 66
     7
 43
1.0
 76
     1
 77
     6
 78
     2
 67
     7
 79
     5
170
     0
171
     0
290
     0
174
     0
 93
       13
 44
0.0
173
     0
291
     1
 45
0.0
1001
ACAD
1000
AcDbSavedByObjectVersion
1070
     0
1000
AcDbSavedByObjectVersion
1070
     0
1000
AcDbSavedByObjectVersion
1070
     0
  0
VISUALSTYLE
  5
5F27
102
{ACAD_REACTORS
330
5F23
102
}
330
5F23
100
AcDbVisualStyle
  2
GouraudWithEdges
 70
     3
 71
     2
 72
     2
 73
     1
 90
        2
 40
-0.6
 41
30.0
 62
     5
 63
     7
 74
     1
 91
        4
 64
     7
 65
   257
 75
     1
175
     1
 42
1.0
 92
        0
 66
   257
 43
1.0
 76
     1
 77
     6
 78
     2
 67
     7
 79
     5
170
     0
171
     0
290
     0
174
     0
 93
       13
 44
0.0
173
     0
291
     1
 45
0.0
1001
ACAD
1000
AcDbSavedByObjectVersion
1070
     0
1000
AcDbSavedByObjectVersion
1070
     0
1000
AcDbSavedByObjectVersion
1070
     0
  0
VISUALSTYLE
  5
5F31
102
{ACAD_REACTORS
330
5F23
102
}
330
5F23
100
AcDbVisualStyle
  2
Linepattern
 70
    14
 71
     2
 72
     2
 73
     0
 90
        0
 40
-0.6
 41
-30.0
 62
     5
 63
     7
 74
     1
 91
        4
 64
     7
 65
   257
 75
     7
175
     7
 42
1.0
 92
        8
 66
     7
 43
1.0
 76
     1
 77
     6
 78
     2
 67
     7
 79
     5
170
     0
171
     0
290
     0
174
     0
 93
        1
 44
0.0
173
     0
291
     1
 45
0.0
1001
ACAD
1000
AcDbSavedByObjectVersion
1070
     0
1000
AcDbSavedByObjectVersion
1070
     0
1000
AcDbSavedByObjectVersion
1070
     0
  0
VISUALSTYLE
  5
5F2D
102
{ACAD_REACTORS
330
5F23
102
}
330
5F23
100
AcDbVisualStyle
  2
Realistic
 70
     8
 71
     2
 72
     2
 73
     0
 90
        0
 40
-0.6
 41
-30.0
 62
     5
 63
     7
 74
     1
 91
        0
 64
     7
 65
   257
 75
     1
175
     1
 42
1.0
 92
        8
 66
     8
 43
1.0
 76
     1
 77
     6
 78
     2
 67
     7
 79
     5
170
     0
171
     0
290
     0
174
     0
 93
       13
 44
0.0
173
     0
291
     0
 45
0.0
1001
ACAD
1000
AcDbSavedByObjectVersion
1070
     0
1000
AcDbSavedByObjectVersion
1070
     0
1000
AcDbSavedByObjectVersion
1070
     0
  0
VISUALSTYLE
  5
5F30
102
{ACAD_REACTORS
330
5F23
102
}
330
5F23
100
AcDbVisualStyle
  2
Thicken
 70
    13
 71
     2
 72
     2
 73
     0
 90
        0
 40
-0.6
 41
-30.0
 62
     5
 63
     7
 74
     1
 91
        4
 64
     7
 65
   257
 75
     1
175
     1
 42
1.0
 92
       12
 66
     7
 43
1.0
 76
     1
 77
     6
 78
     2
 67
     7
 79
     5
170
     0
171
     0
290
     0
174
     0
 93
        1
 44
0.0
173
     0
291
     1
 45
0.0
1001
ACAD
1000
AcDbSavedByObjectVersion
1070
     0
1000
AcDbSavedByObjectVersion
1070
     0
1000
AcDbSavedByObjectVersion
1070
     0
  0
DICTIONARYVAR
  5
6105
102
{ACAD_REACTORS
330
6102
102
}
330
6102
100
DictionaryVariables
280
     0
  1
1:1
  0
DICTIONARYVAR
  5
6104
102
{ACAD_REACTORS
330
6102
102
}
330
6102
100
DictionaryVariables
280
     0
  1
STANDARD
  0
DICTIONARYVAR
  5
6103
102
{ACAD_REACTORS
330
6102
102
}
330
6102
100
DictionaryVariables
280
     0
  1
STANDARD
  0
DICTIONARYVAR
  5
6108
102
{ACAD_REACTORS
330
6102
102
}
330
6102
100
DictionaryVariables
280
     0
  1
1
  0
DICTIONARYVAR
  5
6107
102
{ACAD_REACTORS
330
6102
102
}
330
6102
100
DictionaryVariables
280
     0
  1
0
  0
DICTIONARYVAR
  5
6106
102
{ACAD_REACTORS
330
6102
102
}
330
6102
100
DictionaryVariables
280
     0
  1
127
  0
VLO-VL
  5
60F3
102
{ACAD_REACTORS
330
60F2
102
}
330
60F2
100
vlo_VL
 90
   -64512
 91
       12
 92
        1
 40
2.5
300
(&VLO-R . 0)
  0
DICTIONARY
  5
96B3
330
5F71
100
AcDbDictionary
280
     1
281
     1
  3
ACAD_XREC_ROUNDTRIP
360
96B4
  0
DICTIONARY
  5
96B1
330
5F6D
100
AcDbDictionary
280
     1
281
     1
  3
ACAD_XREC_ROUNDTRIP
360
96B2
  0
DICTIONARY
  5
5F14
330
5F13
100
AcDbDictionary
280
     1
281
     1
  3
ACAD_XREC_ROUNDTRIP
360
6F73
  3
BUMPTILE
360
5F16
  3
DIFFUSETILE
360
5F15
  3
OPACITYTILE
360
5F19
  3
REFLECTIONTILE
360
5F18
  3
REFRACTIONTILE
360
5F1A
  3
SPECULARTILE
360
5F17
  0
DICTIONARY
  5
5F0C
330
5F0B
100
AcDbDictionary
280
     1
281
     1
  3
ACAD_XREC_ROUNDTRIP
360
6F72
  3
BUMPTILE
360
5F0E
  3
DIFFUSETILE
360
5F0D
  3
OPACITYTILE
360
5F11
  3
REFLECTIONTILE
360
5F10
  3
REFRACTIONTILE
360
5F12
  3
SPECULARTILE
360
5F0F
  0
DICTIONARY
  5
5F1C
330
5F1B
100
AcDbDictionary
280
     1
281
     1
  3
ACAD_XREC_ROUNDTRIP
360
6F74
  3
BUMPTILE
360
5F1E
  3
DIFFUSETILE
360
5F1D
  3
OPACITYTILE
360
5F21
  3
REFLECTIONTILE
360
5F20
  3
REFRACTIONTILE
360
5F22
  3
SPECULARTILE
360
5F1F
  0
DICTIONARY
  5
6F6E
330
5F66
100
AcDbDictionary
280
     1
281
     1
  3
ACAD_ROUNDTRIP_2008_TABLESTYLE_CELLSTYLEMAP
360
96A8
  3
ACAD_XREC_ROUNDTRIP
360
96B0
  0
XRECORD
  5
96B4
102
{ACAD_REACTORS
330
96B3
102
}
330
96B3
100
AcDbXrecord
280
     1
102
SHADEPLOT
 70
     0
102
SHADEPLOTRESLEVEL
 70
     2
102
SHADEPLOTCUSTOMDPI
 70
   300
  0
XRECORD
  5
96B2
102
{ACAD_REACTORS
330
96B1
102
}
330
96B1
100
AcDbXrecord
280
     1
102
SHADEPLOT
 70
     0
102
SHADEPLOTRESLEVEL
 70
     2
102
SHADEPLOTCUSTOMDPI
 70
   300
  0
XRECORD
  5
6F73
102
{ACAD_REACTORS
330
5F14
102
}
330
5F14
100
AcDbXrecord
280
     1
102
MATERIAL
148
0.0
149
0.0
149
0.0
 93
        0
 94
      127
282
     0
 72
     0
 77
     0
171
     0
175
     0
179
     0
273
     0
  0
XRECORD
  5
5F16
102
{ACAD_REACTORS
330
5F14
102
}
330
5F14
100
AcDbXrecord
280
     1
270
     1
271
     1
  0
XRECORD
  5
5F15
102
{ACAD_REACTORS
330
5F14
102
}
330
5F14
100
AcDbXrecord
280
     1
270
     1
271
     1
  0
XRECORD
  5
5F19
102
{ACAD_REACTORS
330
5F14
102
}
330
5F14
100
AcDbXrecord
280
     1
270
     1
271
     1
  0
XRECORD
  5
5F18
102
{ACAD_REACTORS
330
5F14
102
}
330
5F14
100
AcDbXrecord
280
     1
270
     1
271
     1
  0
XRECORD
  5
5F1A
102
{ACAD_REACTORS
330
5F14
102
}
330
5F14
100
AcDbXrecord
280
     1
270
     1
271
     1
  0
XRECORD
  5
5F17
102
{ACAD_REACTORS
330
5F14
102
}
330
5F14
100
AcDbXrecord
280
     1
270
     1
271
     1
  0
XRECORD
  5
6F72
102
{ACAD_REACTORS
330
5F0C
102
}
330
5F0C
100
AcDbXrecord
280
     1
102
MATERIAL
148
0.0
149
0.0
149
0.0
 93
        0
 94
      127
282
     0
 72
     0
 77
     0
171
     0
175
     0
179
     0
273
     0
  0
XRECORD
  5
5F0E
102
{ACAD_REACTORS
330
5F0C
102
}
330
5F0C
100
AcDbXrecord
280
     1
270
     1
271
     1
  0
XRECORD
  5
5F0D
102
{ACAD_REACTORS
330
5F0C
102
}
330
5F0C
100
AcDbXrecord
280
     1
270
     1
271
     1
  0
XRECORD
  5
5F11
102
{ACAD_REACTORS
330
5F0C
102
}
330
5F0C
100
AcDbXrecord
280
     1
270
     1
271
     1
  0
XRECORD
  5
5F10
102
{ACAD_REACTORS
330
5F0C
102
}
330
5F0C
100
AcDbXrecord
280
     1
270
     1
271
     1
  0
XRECORD
  5
5F12
102
{ACAD_REACTORS
330
5F0C
102
}
330
5F0C
100
AcDbXrecord
280
     1
270
     1
271
     1
  0
XRECORD
  5
5F0F
102
{ACAD_REACTORS
330
5F0C
102
}
330
5F0C
100
AcDbXrecord
280
     1
270
     1
271
     1
  0
XRECORD
  5
6F74
102
{ACAD_REACTORS
330
5F1C
102
}
330
5F1C
100
AcDbXrecord
280
     1
102
MATERIAL
148
0.0
149
0.0
149
0.0
 93
        0
 94
      127
282
     0
 72
     0
 77
     0
171
     0
175
     0
179
     0
273
     0
  0
XRECORD
  5
5F1E
102
{ACAD_REACTORS
330
5F1C
102
}
330
5F1C
100
AcDbXrecord
280
     1
270
     1
271
     1
  0
XRECORD
  5
5F1D
102
{ACAD_REACTORS
330
5F1C
102
}
330
5F1C
100
AcDbXrecord
280
     1
270
     1
271
     1
  0
XRECORD
  5
5F21
102
{ACAD_REACTORS
330
5F1C
102
}
330
5F1C
100
AcDbXrecord
280
     1
270
     1
271
     1
  0
XRECORD
  5
5F20
102
{ACAD_REACTORS
330
5F1C
102
}
330
5F1C
100
AcDbXrecord
280
     1
270
     1
271
     1
  0
XRECORD
  5
5F22
102
{ACAD_REACTORS
330
5F1C
102
}
330
5F1C
100
AcDbXrecord
280
     1
270
     1
271
     1
  0
XRECORD
  5
5F1F
102
{ACAD_REACTORS
330
5F1C
102
}
330
5F1C
100
AcDbXrecord
280
     1
270
     1
271
     1
  0
CELLSTYLEMAP
  5
96A8
102
{ACAD_REACTORS
330
6F6E
102
}
330
6F6E
100
AcDbCellStyleMap
 90
        3
300
CELLSTYLE
  1
TABLEFORMAT_BEGIN
 90
        5
170
     1
 91
        0
 92
    32768
 62
   257
 93
        1
300
CONTENTFORMAT
  1
CONTENTFORMAT_BEGIN
 90
        0
 91
        0
 92
      512
 93
        0
300

 40
0.0
140
1.0
 94
        5
 62
     0
340
5F57
144
0.25
309
CONTENTFORMAT_END
171
     1
301
MARGIN
  1
CELLMARGIN_BEGIN
 40
0.06
 40
0.06
 40
0.06
 40
0.06
 40
0.18
 40
0.18
309
CELLMARGIN_END
 94
        6
 95
        1
302
GRIDFORMAT
  1
GRIDFORMAT_BEGIN
 90
        0
 91
        1
 62
     0
 92
       -2
340
0
 93
        0
 40
0.045
309
GRIDFORMAT_END
 95
        2
302
GRIDFORMAT
  1
GRIDFORMAT_BEGIN
 90
        0
 91
        1
 62
     0
 92
       -2
340
0
 93
        0
 40
0.045
309
GRIDFORMAT_END
 95
        4
302
GRIDFORMAT
  1
GRIDFORMAT_BEGIN
 90
        0
 91
        1
 62
     0
 92
       -2
340
0
 93
        0
 40
0.045
309
GRIDFORMAT_END
 95
        8
302
GRIDFORMAT
  1
GRIDFORMAT_BEGIN
 90
        0
 91
        1
 62
     0
 92
       -2
340
0
 93
        0
 40
0.045
309
GRIDFORMAT_END
 95
       16
302
GRIDFORMAT
  1
GRIDFORMAT_BEGIN
 90
        0
 91
        1
 62
     0
 92
       -2
340
0
 93
        0
 40
0.045
309
GRIDFORMAT_END
 95
       32
302
GRIDFORMAT
  1
GRIDFORMAT_BEGIN
 90
        0
 91
        1
 62
     0
 92
       -2
340
0
 93
        0
 40
0.045
309
GRIDFORMAT_END
309
TABLEFORMAT_END
  1
CELLSTYLE_BEGIN
 90
        1
 91
        1
300
_TITLE
309
CELLSTYLE_END
300
CELLSTYLE
  1
TABLEFORMAT_BEGIN
 90
        5
170
     1
 91
        0
 92
        0
 62
   257
 93
        1
300
CONTENTFORMAT
  1
CONTENTFORMAT_BEGIN
 90
        0
 91
        0
 92
      512
 93
        0
300

 40
0.0
140
1.0
 94
        5
 62
     0
340
5F57
144
0.18
309
CONTENTFORMAT_END
171
     1
301
MARGIN
  1
CELLMARGIN_BEGIN
 40
0.06
 40
0.06
 40
0.06
 40
0.06
 40
0.18
 40
0.18
309
CELLMARGIN_END
 94
        6
 95
        1
302
GRIDFORMAT
  1
GRIDFORMAT_BEGIN
 90
        0
 91
        1
 62
     0
 92
       -2
340
0
 93
        0
 40
0.045
309
GRIDFORMAT_END
 95
        2
302
GRIDFORMAT
  1
GRIDFORMAT_BEGIN
 90
        0
 91
        1
 62
     0
 92
       -2
340
0
 93
        0
 40
0.045
309
GRIDFORMAT_END
 95
        4
302
GRIDFORMAT
  1
GRIDFORMAT_BEGIN
 90
        0
 91
        1
 62
     0
 92
       -2
340
0
 93
        0
 40
0.045
309
GRIDFORMAT_END
 95
        8
302
GRIDFORMAT
  1
GRIDFORMAT_BEGIN
 90
        0
 91
        1
 62
     0
 92
       -2
340
0
 93
        0
 40
0.045
309
GRIDFORMAT_END
 95
       16
302
GRIDFORMAT
  1
GRIDFORMAT_BEGIN
 90
        0
 91
        1
 62
     0
 92
       -2
340
0
 93
        0
 40
0.045
309
GRIDFORMAT_END
 95
       32
302
GRIDFORMAT
  1
GRIDFORMAT_BEGIN
 90
        0
 91
        1
 62
     0
 92
       -2
340
0
 93
        0
 40
0.045
309
GRIDFORMAT_END
309
TABLEFORMAT_END
  1
CELLSTYLE_BEGIN
 90
        2
 91
        1
300
_HEADER
309
CELLSTYLE_END
300
CELLSTYLE
  1
TABLEFORMAT_BEGIN
 90
        5
170
     1
 91
        0
 92
        0
 62
   257
 93
        1
300
CONTENTFORMAT
  1
CONTENTFORMAT_BEGIN
 90
        0
 91
        0
 92
      512
 93
        0
300

 40
0.0
140
1.0
 94
        2
 62
     0
340
5F57
144
0.18
309
CONTENTFORMAT_END
171
     1
301
MARGIN
  1
CELLMARGIN_BEGIN
 40
0.06
 40
0.06
 40
0.06
 40
0.06
 40
0.18
 40
0.18
309
CELLMARGIN_END
 94
        6
 95
        1
302
GRIDFORMAT
  1
GRIDFORMAT_BEGIN
 90
        0
 91
        1
 62
     0
 92
       -2
340
0
 93
        0
 40
0.045
309
GRIDFORMAT_END
 95
        2
302
GRIDFORMAT
  1
GRIDFORMAT_BEGIN
 90
        0
 91
        1
 62
     0
 92
       -2
340
0
 93
        0
 40
0.045
309
GRIDFORMAT_END
 95
        4
302
GRIDFORMAT
  1
GRIDFORMAT_BEGIN
 90
        0
 91
        1
 62
     0
 92
       -2
340
0
 93
        0
 40
0.045
309
GRIDFORMAT_END
 95
        8
302
GRIDFORMAT
  1
GRIDFORMAT_BEGIN
 90
        0
 91
        1
 62
     0
 92
       -2
340
0
 93
        0
 40
0.045
309
GRIDFORMAT_END
 95
       16
302
GRIDFORMAT
  1
GRIDFORMAT_BEGIN
 90
        0
 91
        1
 62
     0
 92
       -2
340
0
 93
        0
 40
0.045
309
GRIDFORMAT_END
 95
       32
302
GRIDFORMAT
  1
GRIDFORMAT_BEGIN
 90
        0
 91
        1
 62
     0
 92
       -2
340
0
 93
        0
 40
0.045
309
GRIDFORMAT_END
309
TABLEFORMAT_END
  1
CELLSTYLE_BEGIN
 90
        3
 91
        2
300
_DATA
309
CELLSTYLE_END
  0
XRECORD
  5
96B0
102
{ACAD_REACTORS
330
6F6E
102
}
330
6F6E
100
AcDbXrecord
280
     1
102
ACAD_ROUNDTRIP_PRE2007_TABLESTYLE
 90
      512
 91
        0
  1

 92
      512
 93
        0
  2

 94
      512
 95
        0
  3

  0
ENDSEC
  0
EOF
